Мартышкины проделки / Apenstreken (2015) BDRip 1080p | P

 
Автор Сообщение

Russian Mafia ®

Пол:

Стаж: 1 год 8 месяцев

Сообщений: 4246



Награды: 10 (Подробнее)

Mega Seeder 1 (Количество: 1) Mega Seeder 4 (Количество: 1) Top Releaser 4 (Количество: 1)
Торрент-статистика

Создавать темы 26-Авг-2016 15:25

[Цитировать]

Информация о фильме
Название: Мартышкины проделки / Мартышкин труд
Оригинальное название: Apenstreken / Monkey Buisnes
Год выхода: 2015
Жанр: семейный
Режиссер: Йохан Нийенхейс
В ролях: Тиго Буссемакерс, Дик Карлир, Хюс Дам, Арьян Эдервен, Ларс Хенкенс, Эйвон Ясперс, Люк Питерс, Элвин Пулинкс, Харри ван Рейтховен, Мартина Сандифорт
О фильме:
Сирота Вим мечтает учиться в школе, но его заставляют трудиться на фабрике. Когда мальчик сбегает, хозяева мануфактуры объявляют его в розыск. Теперь Виму предстоит наказать обидчиков, а помогут ему в этом верные друзья и маленькая обезьянка!

Производство: Нидерланды / Johan Nijenhuis & Co, Farmhouse Film & TV, Mollywood
Продолжительность: 01:30:50
Перевод: профессиональный многоголосый закадровый [Игмар]
Файл
Качество: BDRip 1080p
Формат: MKV
Видео: MPEG-4 AVC, 1920х1008, 24.000 fps, 8827 kbps, 0.19 bit/pixel
Аудио #1: русский, AC3 2.0, 48 kHz, 192 kbps
Аудио #2: нидерландский, DTS 5.1, 48 kHz, 1509 kbps

MediaInfo

Формат : Matroska
Версия формата : Version 4 / Version 2
Размер файла : 6,68 Гбайт
Продолжительность : 1 ч. 30 м.
Общий поток : 10,5 Мбит/сек
Дата кодирования : UTC 2016-08-25 14:02:30
Программа кодирования : mkvmerge v7.9.0 ('Birds') 64bit
Библиотека кодирования : libebml v1.3.1 + libmatroska v1.4.2
DURATION : 01:30:49.579000000
NUMBER_OF_FRAMES : 510898
NUMBER_OF_BYTES : 1027926776
_STATISTICS_WRITING_APP : mkvmerge v8.5.0 ('Vanishing Act') 64bit
_STATISTICS_WRITING_DATE_UTC : 2015-12-01 22:37:23
_STATISTICS_TAGS : BPS DURATION NUMBER_OF_FRAMES NUMBER_OF_BYTES
Видео
Идентификатор : 1
Формат : AVC
Формат/Информация : Advanced Video Codec
Профиль формата : High@L4.1
Параметр CABAC формата : Да
Параметр ReFrames формата : 4 кадра
Идентификатор кодека : V_MPEG4/ISO/AVC
Продолжительность : 1 ч. 30 м.
Битрейт : 8827 Кбит/сек
Ширина : 1920 пикселей
Высота : 1008 пикселей
Соотношение сторон : 1,905
Режим частоты кадров : Постоянный
Частота кадров : 24,000 кадра/сек
Цветовое пространство : YUV
Субдискретизация насыщенности : 4:2:0
Битовая глубина : 8 бит
Тип развёртки : Прогрессивная
Бит/(Пиксели*Кадры) : 0.190
Размер потока : 5,47 Гбайт (82%)
Библиотека кодирования : x264 core 148 r2638 7599210
Настройки программы : cabac=1 / ref=4 / deblock=1:0:0 / analyse=0x3:0x113 / me=umh / subme=8 / psy=1 / psy_rd=1.00:0.00 / mixed_ref=1 / me_range=16 / chroma_me=1 / trellis=1 / 8x8dct=1 / cqm=0 / deadzone=21,11 / fast_pskip=0 / chroma_qp_offset=-2 / threads=12 / lookahead_threads=2 / sliced_threads=0 / nr=0 / decimate=1 / interlaced=0 / bluray_compat=0 / constrained_intra=0 / bframes=3 / b_pyramid=2 / b_adapt=2 / b_bias=0 / direct=3 / weightb=1 / open_gop=0 / weightp=2 / keyint=250 / keyint_min=24 / scenecut=40 / intra_refresh=0 / rc_lookahead=50 / rc=2pass / mbtree=1 / bitrate=8827 / ratetol=1.0 / qcomp=0.60 / qpmin=0 / qpmax=69 / qpstep=4 / cplxblur=20.0 / qblur=0.5 / ip_ratio=1.40 / aq=1:1.00
Default : Да
Forced : Нет
Аудио #1
Идентификатор : 2
Формат : AC-3
Формат/Информация : Audio Coding 3
Расширение режима : CM (complete main)
Параметр Endianness формата : Big
Идентификатор кодека : A_AC3
Продолжительность : 1 ч. 30 м.
Вид битрейта : Постоянный
Битрейт : 192 Кбит/сек
Каналы : 2 канала
Расположение каналов : Front: L R
Частота : 48,0 КГц
Метод сжатия : С потерями
Размер потока : 125 Мбайт (2%)
Язык : Russian
Default : Да
Forced : Нет
Аудио #2
Идентификатор : 3
Формат : DTS
Формат/Информация : Digital Theater Systems
Режим : 16
Параметр Endianness формата : Big
Идентификатор кодека : A_DTS
Продолжительность : 1 ч. 30 м.
Вид битрейта : Постоянный
Битрейт : 1509 Кбит/сек
Каналы : 6 каналов
Расположение каналов : Front: L C R, Side: L R, LFE
Частота : 48,0 КГц
Битовая глубина : 24 бит
Метод сжатия : С потерями
Размер потока : 980 Мбайт (14%)
Язык : Dutch
Default : Нет
Forced : Нет
Меню
00:00:00.000 : en:00:00:00.000
00:08:14.583 : en:00:08:14.583
00:20:22.167 : en:00:20:22.167
00:30:55.042 : en:00:30:55.042
00:40:17.708 : en:00:40:17.708
00:51:06.750 : en:00:51:06.750
01:00:11.458 : en:01:00:11.458
01:09:15.083 : en:01:09:15.083
01:20:02.625 : en:01:20:02.625
[Профиль] [ЛС]
Показать сообщения:    

Текущее время: Сегодня 07:06

Часовой пояс: GMT



Вы не можете начинать темы
Вы не можете отвечать на сообщения
Вы не можете редактировать свои сообщения
Вы не можете удалять свои сообщения
Вы не можете голосовать в опросах
Вы не можете прикреплять файлы к сообщениям
Вы не можете скачивать файлы