Мартин Клунс в поисках лошадиной силы / Martin Clunes: Heavy Horsepower (Martin Clunes) [2012, Документальный, HDTV 720p]

 
Автор Сообщение

TorrentFilm ®

Пол:

Стаж: 2 года

Сообщений: 7741



Награды: Нет

Торрент-статистика

Создавать темы 01-Май-2015 00:03

[Цитировать]

Мартин Клунс в поисках лошадиной силы / Martin Clunes: Heavy Horsepower
Год выпуска: 2012
Страна: Великобритания
Жанр: Документальный
Продолжительность: 00:45:51
Перевод: Профессиональный (одноголосый)
Доп. инфо о переводе: Роман Антонович
Русские субтитры: нет
Режиссер: Martin Clunes
Описание: Жизнь двух жеребцов Мартина Клунса прекрасна: их хорошо кормят, за ними ухаживают и обожают. Однако лошади Ронни и Брюс даже и не подозревают, что у Мартина созрел план, и совсем скоро им придется работать на его ферме. Пятьдесят лет назад казалось, что век рабочей лошади сменился веком новых технологий и техники. Но совсем недавно многие фермеры стали вновь использовать лошадей в качестве рабочей силы.
Сэмпл: http://multi-up.com/1044329
Тип релиза: HDTV 720p
Контейнер: TS
Видео: AVC, 1280x720, (16:9), 50.00 fps, 3844 Кбит/сек
Аудио: MPEG Audio, 192 Kbps, 48 kHz, 2 channels

MediaInfo

Формат : MPEG-TSРазмер файла : 1,36 ГбайтПродолжительность : 45 м.Режим общего битрейта : ПеременныйОбщий поток : 4247 Кбит/сек
ВидеоИдентификатор : 2079 (0x81F)Идентификатор меню : 1 (0x1)Формат : AVCФормат/Информация : Advanced Video CodecПрофиль формата : High@L4Параметр CABAC формата : ДаПараметр ReFrames формата : 4 кадраИдентификатор кодека : 27Продолжительность : 45 м.Битрейт : 3844 Кбит/секШирина : 1280 пикселейВысота : 720 пикселейСоотношение сторон : 16:9Частота кадров : 50,000 кадров/секСтандарт вещания : ComponentЦветовое пространство : YUVСубдискретизация насыщенности : 4:2:0Битовая глубина : 8 битТип развёртки : ПрогрессивнаяБит/(Пиксели*Кадры) : 0.083Размер потока : 1,23 Гбайт (90%)colour_range : LimitedОсновные цвета : BT.601 PALХарактеристики трансфера : BT.470 System B, BT.470 System GКоэффициенты матрицы : BT.601
АудиоИдентификатор : 2078 (0x81E)Идентификатор меню : 1 (0x1)Формат : MPEG AudioВерсия формата : Version 1Профиль формата : Layer 2Идентификатор кодека : 4Продолжительность : 45 м.Вид битрейта : ПостоянныйБитрейт : 192 Кбит/секКаналы : 2 каналаЧастота : 48,0 КГцМетод сжатия : С потерямиЗадержка видео : -732 мс.Размер потока : 63,0 Мбайт (5%)Язык : Russian

Скриншоты



[Профиль] [ЛС]
Кто просматривает тему:

Форум Тема Автор Размер
Фильмы 2011 года 007: Казино Рояль / Casino Royale (Мартин Кэмпбелл / Martin Campbell) [2006, Германия, США, Великобритания, Чехия, боевик, триллер, приключения, BDRip] Dub [Полная версия / UnCut] painkiller 1.46 GB
BBC BBC: Мир природы. Водопад Виктория - Гремящий дым / Natural World. Victoria Falls - The Smoke that Thunders [сезон 29 серия 2] (Тим Мартин / Tim Martin) [2009 г., Документальны... skorpionN 1.59 GB
BBC BBC: Мир природы. Кукушка / The Natural World. Cuckoo (Тим Мартин / Tim Martin) [2009 г., Документальный, природа, HDTVRip 720p] skorpionN 1.25 GB
BBC BBC: Мир природы. Секреты подземелий майя / Natural World. Secrets of the Maya Underworld (Тим Мартин) [2005 г., Документальный, природа, флора, фауна, HDTVRip-AVC 720p] skorpionN 1.49 GB
BBC BBC: Мир природы. Тайная жизнь барсуков / Natural World. Badgers Secrets of the Sett [сезон 27 серия 7] (Тим Мартин / Tim Martin) [2008 г., Документальный, исследование, животные, природа, HDTVRip... skorpionN 1.15 GB
PBS PBS Nova: Как построить колесницу фараона? / Building Pharaoh's Chariot [сезон 40 серия 10] (Мартин О'Коллинз / Martin O'Collins) [2013 г., Документальный, познавательный, история,... skorpionN 1.23 GB
Зарубежные мультсериалы Аватар: Легенда о Корре / The Legend of Korra (1-3 сезон полные: 39 серий) (Книга 1-3) (Michael Dante DiMartino / Майкл Данте ДиМартино) [2012-2014 г., мультсериал, приключения, фэнтези, WEB-DLRip]... sergej644 11.16 GB
Фильмы 2011 года Адская тварь / Aswang (Рай Мартин, Бэрри Полтерманн) [1994 г., ужасы, DVDRip] [AVO (Гранкин)] Bathory 1.37 GB
Показать сообщения:    

Текущее время: Сегодня 22:38

Часовой пояс: GMT



Вы не можете начинать темы
Вы не можете отвечать на сообщения
Вы не можете редактировать свои сообщения
Вы не можете удалять свои сообщения
Вы не можете голосовать в опросах
Вы не можете прикреплять файлы к сообщениям
Вы не можете скачивать файлы