Марсианин / The Martian (2015) BDRip 1080p | Лицензия

 
Автор Сообщение

BOSS ®

Пол:

Стаж: 2 года 2 месяца

Сообщений: 3748

Откуда: ODESSA



Награды: 20 (Подробнее)

За внесенный вклад в развитие сайта (Количество: 1) Mega Seeder 1 (Количество: 1) Top Seeder 4 (Количество: 1)
Торрент-статистика

Создавать темы 09-Янв-2016 19:25

[Цитировать]

Информация о фильме
Название: Марсианин
Оригинальное название: The Martian
Год выхода: 2015
Жанр: фантастика, приключения
Режиссер: Ридли Скотт
В ролях: Мэтт Дэймон, Джессика Честейн, Чиветель Эджиофор, Кристен Уиг, Джефф Дэниелс, Майкл Пенья, Шон Бин, Кейт Мара, Себастьян Стэн, Аксель Хенни
О фильме:
Марсианская миссия «Арес-3» в процессе работы была вынуждена экстренно покинуть планету из-за надвигающейся песчаной бури. Инженер и биолог Марк Уотни получил повреждение скафандра во время песчаной бури. Сотрудники миссии, посчитав его погибшим, эвакуировались с планеты, оставив Марка одного.
Очнувшись, Уотни обнаруживает, что связь с Землёй отсутствует, но при этом полностью функционирует жилой модуль. Главный герой начинает искать способ продержаться на имеющихся запасах еды, витаминов, воды и воздуха ещё 4 года до прилёта следующей миссии «Арес-4».

Страна: США, Великобритания
Студия: 20th Century Fox Film Corporation, TSG Entertainment
Продолжительность: 02:21:37
Перевод: Профессиональный (дублированный) Blu-ray EUR
Файл
Формат: Matroska
Видео: 1920x800 at 23.976 fps, x264@L4.1, ~14000 kbps avg
Aудио#1: Russian: 48 kHz, DTS, 3/2 (L,C,R,l,r) + LFE ch, ~768.00 kbps avg |Дубляж, Blu-ray EUR|
Aудио#2: Russian: 48 kHz, AC3, 3/2 (L,C,R,l,r) + LFE ch, ~448.00 kbps avg |Дубляж, Blu-ray EUR|
Aудио#3: Ukrainian: 48 kHz, AC3, 3/2 (L,C,R,l,r) + LFE ch, ~448.00 kbps avg |Дубляж, Blu-ray EUR|
Аудио#4: English: 48 kHz, DTS, 3/2 (L,C,R,l,r) + LFE ch, ~1509.00 kbps avg
Субтитры: Russian (Forced, iTunes), Russian (iTunes), Ukrainian (Forced, iTunes), Ukrainian (iTunes), English
***Сохранены оригинальные главы как на Blu-ray.
***Видеоряд - TayTO, сборка рипа - bog3417.

MI

Общее
Уникальный идентификатор : 177245845806645818639691161494832761887 (0x85584EE5EA44C7A89EB547B838CB4C1F)
Полное имя : The.Martian.2015.BDRip.1080p.mkv
Формат : Matroska
Версия формата : Version 2
Размер файла : 17,3 Гбайт
Продолжительность : 2 ч. 21 м.
Общий поток : 17,5 Мбит/сек
Название фильма : BLUEBIRD
Дата кодирования : UTC 2016-01-09 18:07:15
Программа кодирования : mkvmerge v7.9.0 ('Birds') 64bit
Библиотека кодирования : libebml v1.3.1 + libmatroska v1.4.2
Attachements : Cover.jpg
Видео
Идентификатор : 1
Формат : AVC
Формат/Информация : Advanced Video Codec
Профиль формата : High@L4.1
Параметр CABAC формата : Да
Параметр ReFrames формата : 5 кадров
Идентификатор кодека : V_MPEG4/ISO/AVC
Продолжительность : 2 ч. 21 м.
Битрейт : 14,0 Мбит/сек
Ширина : 1920 пикселей
Высота : 800 пикселей
Соотношение сторон : 2,40:1
Режим частоты кадров : Постоянный
Частота кадров : 23,976 кадра/сек
Цветовое пространство : YUV
Субдискретизация насыщенности : 4:2:0
Битовая глубина : 8 бит
Тип развёртки : Прогрессивная
Бит/(Пиксели*Кадры) : 0.379
Размер потока : 13,8 Гбайт (80%)
Библиотека кодирования : x264 core 142 r2431+42 c69a006 tMod [8-bit@all X86_64]
Настройки программы : cabac=1 / ref=5 / deblock=1:-3:-3 / analyse=0x3:0x133 / me=tesa / subme=11 / psy=1 / fade_compensate=0.00 / psy_rd=1.05:0.00 / mixed_ref=1 / me_range=32 / chroma_me=1 / trellis=2 / 8x8dct=1 / cqm=0 / deadzone=21,11 / fast_pskip=0 / chroma_qp_offset=-2 / threads=12 / lookahead_threads=2 / sliced_threads=0 / nr=0 / decimate=0 / interlaced=0 / bluray_compat=0 / constrained_intra=0 / fgo=0 / bframes=8 / b_pyramid=2 / b_adapt=2 / b_bias=0 / direct=3 / weightb=1 / open_gop=0 / weightp=2 / keyint=250 / keyint_min=23 / scenecut=40 / intra_refresh=0 / rc_lookahead=60 / rc=crf / mbtree=0 / crf=16.5000 / qcomp=0.65 / qpmin=0:0:0 / qpmax=69:69:69 / qpstep=4 / vbv_maxrate=62500 / vbv_bufsize=78125 / crf_max=0.0 / nal_hrd=none / filler=0 / ip_ratio=1.24 / pb_ratio=1.18 / aq=3:0.80 / aq-sensitivity=10.00 / aq-factor=1.00:1.00:1.00 / aq2=0 / aq3=0 / zones=48,1010,crf=15/1660,2082,crf=15.5/7292,13300,crf=16/16619,16688,crf=15/33320,34770,crf=17/40048,40320,crf=17/41795,42232,crf=17/49947,50364,crf=17/53716,53972,crf=15.5/54747,54958,crf=16/55683,55909,crf=15.5/63551,64000,crf=17/67015,67095,crf=15/67180,67240,crf=15/68161,68193,crf=15/68272,68322,crf=15/74143,74189,crf=15.5/74732,75165,crf=16/75968,76398,crf=15.5/82920,83184,crf=17/85846,85967,crf=16/89762,90070,crf=15.5/90332,90444,crf=13.5/90608,96218,crf=15.7/103084,103194,crf=13.5/103731,103775,crf=15/106245,107560,crf=17/109200,109411,crf=17/113125,113252,crf=16/114099,115258,crf=16/115676,117929,crf=17/119287,119321,crf=14/119359,121725,crf=17/122367,122445,crf=17/125100,125395,crf=17/131340,132582,crf=17/132583,132668,crf=15.5/134534,134910,crf=17/135946,136039,crf=17/143210,143254,crf=15/148548,148605,crf=15.5/148859,149160,crf=15/149560,149641,crf=16/150798,150864,crf=15.5/150865,152286,crf=17/155410,155649,crf=13.5/155743,155960,crf=13.5/156562,156953,crf=15.5/158344,158445,crf=15.5/161182,161350,crf=14.5/164565,164648,crf=17/165098,165231,crf=16/166748,166828,crf=13/167090,167266,crf=13.5/167310,167429,crf=14.5/167541,167632,crf=13/167685,167816,crf=13.5/167891,167945,crf=14/168132,168374,crf=13.5/168384,168478,crf=15.5/169152,169321,crf=15/170164,170263,crf=15.5/171202,171816,crf=15/172616,172728,crf=16/174815,174841,crf=15/175105,175131,crf=15/175492,175635,crf=16/176033,176209,crf=17/176210,176278,crf=15.5/177409,177654,crf=15.5/180010,180110,crf=17/180129,180196,crf=17/182095,182141,crf=15.5/182671,182739,crf=16/183054,183165,crf=16/183525,183656,crf=16/184071,192320,crf=16/195790,203737,crf=21
Язык : English
Default : Да
Forced : Нет
Цветовой диапазон : Limited
Коэффициенты матрицы : BT.709
Аудио #1
Идентификатор : 2
Формат : DTS
Формат/Информация : Digital Theater Systems
Режим : 16
Параметр Endianness формата : Big
Идентификатор кодека : A_DTS
Продолжительность : 2 ч. 21 м.
Вид битрейта : Постоянный
Битрейт : 768 Кбит/сек
Каналы : 6 каналов
Расположение каналов : Front: L C R, Side: L R, LFE
Частота : 48,0 КГц
Битовая глубина : 24 бит
Метод сжатия : С потерями
Размер потока : 778 Мбайт (4%)
Заголовок : BD EUR
Язык : Russian
Default : Да
Forced : Нет
Аудио #2
Идентификатор : 3
Формат : AC-3
Формат/Информация : Audio Coding 3
Расширение режима : CM (complete main)
Параметр Endianness формата : Big
Идентификатор кодека : A_AC3
Продолжительность : 2 ч. 21 м.
Вид битрейта : Постоянный
Битрейт : 448 Кбит/сек
Каналы : 6 каналов
Расположение каналов : Front: L C R, Side: L R, LFE
Частота : 48,0 КГц
Метод сжатия : С потерями
Размер потока : 454 Мбайт (3%)
Заголовок : BD EUR
Язык : Russian
Default : Нет
Forced : Нет
Аудио #3
Идентификатор : 4
Формат : AC-3
Формат/Информация : Audio Coding 3
Расширение режима : CM (complete main)
Параметр Endianness формата : Big
Идентификатор кодека : A_AC3
Продолжительность : 2 ч. 21 м.
Вид битрейта : Постоянный
Битрейт : 448 Кбит/сек
Каналы : 6 каналов
Расположение каналов : Front: L C R, Side: L R, LFE
Частота : 48,0 КГц
Метод сжатия : С потерями
Размер потока : 454 Мбайт (3%)
Заголовок : BD EUR
Язык : Ukrainian
Default : Нет
Forced : Нет
Аудио #4
Идентификатор : 5
Формат : DTS
Формат/Информация : Digital Theater Systems
Режим : 16
Параметр Endianness формата : Big
Идентификатор кодека : A_DTS
Продолжительность : 2 ч. 21 м.
Вид битрейта : Постоянный
Битрейт : 1509 Кбит/сек
Каналы : 6 каналов
Расположение каналов : Front: L C R, Side: L R, LFE
Частота : 48,0 КГц
Битовая глубина : 24 бит
Метод сжатия : С потерями
Размер потока : 1,49 Гбайт (9%)
Заголовок : English DTS Core 5.1 @1509 Kbps
Язык : English
Default : Нет
Forced : Нет
Текст #1
Идентификатор : 6
Формат : UTF-8
Идентификатор кодека : S_TEXT/UTF8
Идентификатор кодека/Информация : UTF-8 Plain Text
Язык : Russian
Default : Да
Forced : Нет
Текст #2
Идентификатор : 7
Формат : UTF-8
Идентификатор кодека : S_TEXT/UTF8
Идентификатор кодека/Информация : UTF-8 Plain Text
Язык : Russian
Default : Нет
Forced : Нет
Текст #3
Идентификатор : 8
Формат : UTF-8
Идентификатор кодека : S_TEXT/UTF8
Идентификатор кодека/Информация : UTF-8 Plain Text
Язык : Ukrainian
Default : Нет
Forced : Нет
Текст #4
Идентификатор : 9
Формат : UTF-8
Идентификатор кодека : S_TEXT/UTF8
Идентификатор кодека/Информация : UTF-8 Plain Text
Язык : Ukrainian
Default : Нет
Forced : Нет
Текст #5
Идентификатор : 10
Формат : UTF-8
Идентификатор кодека : S_TEXT/UTF8
Идентификатор кодека/Информация : UTF-8 Plain Text
Заголовок : Forced
Язык : English
Default : Нет
Forced : Да
Текст #6
Идентификатор : 11
Формат : UTF-8
Идентификатор кодека : S_TEXT/UTF8
Идентификатор кодека/Информация : UTF-8 Plain Text
Язык : English
Default : Нет
Forced : Нет
Текст #7
Идентификатор : 12
Формат : UTF-8
Идентификатор кодека : S_TEXT/UTF8
Идентификатор кодека/Информация : UTF-8 Plain Text
Заголовок : SDH
Язык : English
Default : Нет
Forced : Нет
Меню
00:00:00.000 : en:Chapter 01
00:03:22.285 : en:Chapter 03
00:10:08.983 : en:Chapter 05
00:15:24.590 : en:Chapter 07
00:18:25.187 : en:Chapter 09
00:21:34.376 : en:Chapter 11
00:24:28.091 : en:Chapter 13
00:28:52.689 : en:Chapter 15
00:31:36.644 : en:Chapter 17
00:34:21.100 : en:Chapter 19
00:39:13.434 : en:Chapter 21
00:41:21.770 : en:Chapter 23
00:46:23.530 : en:Chapter 25
00:49:25.087 : en:Chapter 27
00:56:15.747 : en:Chapter 29
00:59:40.493 : en:Chapter 31
01:02:23.823 : en:Chapter 33
01:06:53.134 : en:Chapter 35
01:09:52.980 : en:Chapter 37
01:13:51.301 : en:Chapter 39
01:18:38.255 : en:Chapter 41
01:22:52.467 : en:Chapter 43
01:30:41.269 : en:Chapter 45
01:37:30.094 : en:Chapter 47
01:43:31.997 : en:Chapter 49
01:46:16.286 : en:Chapter 51
01:50:18.737 : en:Chapter 53
01:54:07.966 : en:Chapter 55
01:57:49.312 : en:Chapter 57
02:04:41.682 : en:Chapter 59
02:11:05.732 : en:Chapter 61
02:13:28.792 : en:Chapter 63
02:21:37.322 : en:Chapter 64

Скриншоты


[Профиль] [ЛС]
Показать сообщения:    

Текущее время: Сегодня 07:12

Часовой пояс: GMT



Вы не можете начинать темы
Вы не можете отвечать на сообщения
Вы не можете редактировать свои сообщения
Вы не можете удалять свои сообщения
Вы не можете голосовать в опросах
Вы не можете прикреплять файлы к сообщениям
Вы не можете скачивать файлы