Марсианин / The Martian (Колин Треворроу) [2015, Фантастика, приключения , WEB-DLRip-AVC 1080p] [DD5.1] [Dub Rus , Ukr , Eng]+[Sub Rus , Ukr , Eng]

 
Автор Сообщение

Враг Нароода ®

Стаж: 1 год 8 месяцев

Сообщений: 112



Награды: 2 (Подробнее)

Mega Seeder 1 (Количество: 1) За внесенный вклад в развитие сайта (Количество: 1)
Торрент-статистика

Создавать темы 28-Дек-2015 13:19

[Цитировать]

--Марсианин / The Martian-- --Год выпуска: 2015
Выпущено: США, 20th Century Fox Film Corporation, Genre Films
Жанр: Фантастика, приключения
Продолжительность: 02:22:07
Озвучка # 1 :Русский : - [Дубляж, iTunes Russia ]
Озвучка # 2 :Украинский: [ Дубляж, iTunes Russia ]
Озвучка # 3 :Английский : - Оригинал
Субтитры: Russian (Forced, iTunes), Russian (iTunes), Ukrainian (iTunes), English (Forced, iTunes), English (iTunes) -- --Режиссер: Ридли Скотт--В ролях: Мэтт Дэймон, Джессика Честейн, Чиветел Эджиофор, Кристен Уиг, Джефф Дэниелс, Майкл Пенья, Шон Бин, Кейт Мара, Себастьян Стэн, Аксель Хенни, Бенедикт Вонг, Маккензи Дэвис, Дональд Гловер, Ник Мохаммед, Чен Шу, Эдди Ко, Энцо Чиленти, Джонатан Арис, Граффадд Глин, Наоми Скотт-- Марсианская миссия «Арес-3» в процессе работы была вынуждена экстренно покинуть планету из-за надвигающейся песчаной бури. Инженер и биолог Марк Уотни получил повреждение скафандра во время песчаной бури. Сотрудники миссии, посчитав его погибшим, эвакуировались с планеты, оставив Марка одного.
Очнувшись, Уотни обнаруживает, что связь с Землёй отсутствует, но при этом полностью функционирует жилой модуль. Главный герой начинает искать способ продержаться на имеющихся запасах еды, витаминов, воды и воздуха ещё 4 года до прилёта следующей миссии «Арес-4».
-- --Качество :WEB-DLRip-AVC 1080p
Формат: MKV
Видео кодек: H264
Видео: 4355Кбит/сек,1916х796(12.40),в 23.976кадр/сек,AVC(High@L4)(CABAC/5 Ref Frames)
Аудио Кодек:AC3
Аудио #1:AC3 , 384 Kbps, 48.0 KHz, 6 ch- -Русский - [ Дубляж]
Аудио #2: 44.1 kHz, AAC, 2/0 (L,R) ch, ~160.00 kbps avg - -Украинский - [ Дубляж]
Аудио #3: AC3, 384 Kbps, 48.0 KHz, 6 ch - - Английский - Оригинал--

MediaInfo

Общее
Уникальный идентификатор : 238539085015505075886809118333189361069 (0xB374F4E893243BD4A16E1D9D4CFA0DAD)
Полное имя : E:\К ИНО\ФАНТАСТИКА\МАРСИАНИН\THE_MARTIAN_2015_Rus_Ukr_Eng[ iTunes_Russia]_x264_N.B_WEB-DLRip_1080p\THE_MARTIAN_2015_Rus_Ukr_Eng[ iTunes_Russia]_x264_N.B_WEB-DLRip_1080p.mkv
Формат : Matroska
Версия формата : Version 4 / Version 2
Размер файла : 5,24 Гбайт
Продолжительность : 2 ч. 22 м.
Общий поток : 5280 Кбит/сек
Название фильма : THE_MARTIAN_2015_Rus_Ukr_Eng[ iTunes_Russia]_x264_N.B_WEB-DLRip_1080p
Дата кодирования : UTC 2015-12-28 08:45:18
Программа кодирования : mkvmerge v8.6.1 ('Flying') 64bit
Библиотека кодирования : libebml v1.3.3 + libmatroska v1.4.4
Видео
Идентификатор : 1
Формат : AVC
Формат/Информация : Advanced Video Codec
Профиль формата : High@L4
Параметр CABAC формата : Да
Параметр ReFrames формата : 5 кадров
Идентификатор кодека : V_MPEG4/ISO/AVC
Продолжительность : 2 ч. 22 м.
Битрейт : 4355 Кбит/сек
Ширина : 1916 пикселей
Высота : 796 пикселей
Соотношение сторон : 2,40:1
Режим частоты кадров : Постоянный
Частота кадров : 23,976 (23976/1000) кадра/сек
Цветовое пространство : YUV
Субдискретизация насыщенности : 4:2:0
Битовая глубина : 8 бит
Тип развёртки : Прогрессивная
Бит/(Пиксели*Кадры) : 0.119
Размер потока : 4,32 Гбайт (82%)
Заголовок : The Martian (2015) - Release for HDCLUB
Язык : English
Default : Да
Forced : Нет
Цветовой диапазон : Limited
Основные цвета : BT.709
Характеристики трансфера : BT.709
Коэффициенты матрицы : BT.709
Аудио #1
Идентификатор : 2
Формат : AC-3
Формат/Информация : Audio Coding 3
Расширение режима : CM (complete main)
Параметр Endianness формата : Big
Идентификатор кодека : A_AC3
Продолжительность : 2 ч. 21 м.
Вид битрейта : Постоянный
Битрейт : 384 Кбит/сек
Каналы : 6 каналов
Расположение каналов : Front: L C R, Side: L R, LFE
Частота : 48,0 КГц
Частота кадров : 31,250 кадров/сек (1536 spf)
Метод сжатия : С потерями
Размер потока : 389 Мбайт (7%)
Заголовок : AC3 5.1 @ 384 kbps - DUB, iTunes
Язык : Russian
Default : Да
Forced : Нет
Аудио #2
Идентификатор : 3
Формат : AAC
Формат/Информация : Advanced Audio Codec
Профиль формата : LC
Идентификатор кодека : A_AAC
Продолжительность : 2 ч. 21 м.
Битрейт : 158 Кбит/сек
Каналы : 2 канала
Расположение каналов : Front: L R
Частота : 48,0 КГц
Частота кадров : 46,875 кадров/сек (1024 spf)
Метод сжатия : С потерями
Размер потока : 160 Мбайт (3%)
Заголовок : AAC 2.0 @ 160 kbps - DUB, iTunes
Язык : Ukrainian
Default : Нет
Forced : Нет
Аудио #3
Идентификатор : 4
Формат : AC-3
Формат/Информация : Audio Coding 3
Расширение режима : CM (complete main)
Параметр Endianness формата : Big
Идентификатор кодека : A_AC3
Продолжительность : 2 ч. 21 м.
Вид битрейта : Постоянный
Битрейт : 384 Кбит/сек
Каналы : 6 каналов
Расположение каналов : Front: L C R, Side: L R, LFE
Частота : 48,0 КГц
Частота кадров : 31,250 кадров/сек (1536 spf)
Метод сжатия : С потерями
Размер потока : 389 Мбайт (7%)
Заголовок : AC3 5.1 @ 384 kbps
Язык : English
Default : Нет
Forced : Нет
Текст #1
Идентификатор : 5
Формат : UTF-8
Идентификатор кодека : S_TEXT/UTF8
Идентификатор кодека/Информация : UTF-8 Plain Text
Продолжительность : 2 ч. 20 м.
Битрейт : 3 бит/сек
Count of elements : 67
Размер потока : 3,16 Кбайт (0%)
Заголовок : Forced, iTunes
Язык : Russian
Default : Да
Forced : Нет
Текст #2
Идентификатор : 6
Формат : UTF-8
Идентификатор кодека : S_TEXT/UTF8
Идентификатор кодека/Информация : UTF-8 Plain Text
Продолжительность : 2 ч. 20 м.
Битрейт : 91 бит/сек
Count of elements : 1753
Размер потока : 94,0 Кбайт (0%)
Заголовок : iTunes
Язык : Russian
Default : Нет
Forced : Нет
Текст #3
Идентификатор : 7
Формат : UTF-8
Идентификатор кодека : S_TEXT/UTF8
Идентификатор кодека/Информация : UTF-8 Plain Text
Продолжительность : 2 ч. 20 м.
Битрейт : 94 бит/сек
Count of elements : 1753
Размер потока : 96,6 Кбайт (0%)
Заголовок : iTunes
Язык : Ukrainian
Default : Нет
Forced : Нет
Текст #4
Идентификатор : 8
Формат : UTF-8
Идентификатор кодека : S_TEXT/UTF8
Идентификатор кодека/Информация : UTF-8 Plain Text
Продолжительность : 47 с.
Битрейт : 91 бит/сек
Count of elements : 12
Размер потока : 548 байт (0%)
Заголовок : Forced, iTunes
Язык : English
Default : Нет
Forced : Нет
Текст #5
Идентификатор : 9
Формат : UTF-8
Идентификатор кодека : S_TEXT/UTF8
Идентификатор кодека/Информация : UTF-8 Plain Text
Продолжительность : 2 ч. 13 м.
Битрейт : 54 бит/сек
Count of elements : 1617
Размер потока : 53,4 Кбайт (0%)
Заголовок : iTunes
Язык : English
Default : Нет
Forced : Нет
Меню
00:00:00.000 : en:Chapter 01
00:03:21.000 : en:Chapter 02
00:10:07.000 : en:Chapter 03
00:15:22.000 : en:Chapter 04
00:18:23.000 : en:Chapter 05
00:21:32.000 : en:Chapter 06
00:24:25.000 : en:Chapter 07
00:28:49.000 : en:Chapter 08
00:31:33.000 : en:Chapter 09
00:34:18.000 : en:Chapter 10
00:39:10.000 : en:Chapter 11
00:41:18.000 : en:Chapter 12
00:46:19.000 : en:Chapter 13
00:49:21.000 : en:Chapter 14
00:56:11.000 : en:Chapter 15
00:59:35.000 : en:Chapter 16
01:02:19.000 : en:Chapter 17
01:06:48.000 : en:Chapter 18
01:09:47.000 : en:Chapter 19
01:13:45.000 : en:Chapter 20
01:18:32.000 : en:Chapter 21
01:22:46.000 : en:Chapter 22
01:30:34.000 : en:Chapter 23
01:37:23.000 : en:Chapter 24
01:43:24.000 : en:Chapter 25
01:46:08.000 : en:Chapter 26
01:50:11.000 : en:Chapter 27
01:54:00.000 : en:Chapter 28
01:57:41.000 : en:Chapter 29
02:04:33.000 : en:Chapter 30
02:10:56.000 : en:Chapter 31
02:13:19.000 : en:Chapter 32
--

Скриншоты

-- -- -- --Релиз от: Nikolai.Baranov -- -- -- --
[Профиль] [ЛС]
Показать сообщения:    

Текущее время: Сегодня 14:58

Часовой пояс: GMT



Вы не можете начинать темы
Вы не можете отвечать на сообщения
Вы не можете редактировать свои сообщения
Вы не можете удалять свои сообщения
Вы не можете голосовать в опросах
Вы не можете прикреплять файлы к сообщениям
Вы не можете скачивать файлы