Марли и я / Marley & Me (Дэвид Фрэнкел / David Frankel) [2008, США, Драма, мелодрама, комедия, семейный, BDRip] Dub

 
Автор Сообщение

painkiller ®

Стаж: 2 года 3 месяца

Сообщений: 582



Награды: Нет

Торрент-статистика

Создавать темы 14-Авг-2014 09:10

[Цитировать]

Марли и я / Marley & Me
«Хорошо быть кисою, хорошо собакою...»
- Год выпуска: 2008
Выпущено: США / Fox 2000 Pictures
Жанр: драма, мелодрама, комедия, семейный
Продолжительность: 01:55:33
Перевод: Профессиональный (полное дублирование)
Cубтитры: нет-Режиссер:
Дэвид Фрэнкел / David Frankel-В ролях:
Оуэн Уилсон (John), Дженнифер Энистон (Jenny), Эрик Дэйн (Sebastian), Алан Аркин (Arnie Klein), Кэтлин Тёрнер (Ms. Kornblut), Нэйтан Гэмбл (Patrick (Age 10)), Хейли Беннетт (Lisa), Энн Дауд (Dr. Platt), Кларк Питерс (Editor), Финли Якобсен (Conor (Age 8)), Люси Мерриам (Colleen (Age 5))-Описание:
Молодой журналист со своей женой переезжает в другой город на новое место работы. У них грандиозные планы: покупка дома, дети… Но сначала они заводят собаку. Кто бы мог подумать, что именно она станет главным испытанием в их жизни.-Релиз групп | | IMDB | КиноПоиск | Сэмпл |-Качество: BDRip [BDRemux | 1080p | Кинозал]
Формат: AVI
Видео: 720x304 (2.37:1), 23.976 fps, XviD build 73 ~1412 kbps avg, 0.27 bit/pixel
Аудио: 48 kHz, AC3 Dolby Digital, 3/2 (L,C,R,l,r) + LFE ch, ~384.00 kbps avg
-

Скриншоты

MediaInfo

General
Complete name                            : D:\Marli_&_Ya_2008_BDRip_by_Dalemake.avi
Format                                   : AVI
Format/Info                              : Audio Video Interleave
File size                                : 1.46 GiB
Duration                                 : 1h 55mn
Overall bit rate                         : 1 806 Kbps
Writing application                      : VirtualDubMod 1.5.10.3 | www.virtualdub-fr.org || (build 2550/release)
Writing library                          : VirtualDubMod build 2550/release
Video
ID                                       : 0
Format                                   : MPEG-4 Visual
Format profile                           : Advanced Simple@L5
Format settings, BVOP                    : 1
Format settings, QPel                    : No
Format settings, GMC                     : No warppoints
Format settings, Matrix                  : Custom
Codec ID                                 : XVID
Codec ID/Hint                            : XviD
Duration                                 : 1h 55mn
Bit rate                                 : 1 413 Kbps
Width                                    : 720 pixels
Height                                   : 304 pixels
Display aspect ratio                     : 2.35:1
Frame rate                               : 23.976 fps
Color space                              : YUV
Chroma subsampling                       : 4:2:0
Bit depth                                : 8 bits
Scan type                                : Progressive
Compression mode                         : Lossy
Bits/(Pixel*Frame)                       : 0.269
Stream size                              : 1.14 GiB (78%)
Writing library                          : XviD 73
Audio
ID                                       : 1
Format                                   : AC-3
Format/Info                              : Audio Coding 3
Mode extension                           : CM (complete main)
Format settings, Endianness              : Big
Codec ID                                 : 2000
Duration                                 : 1h 55mn
Bit rate mode                            : Constant
Bit rate                                 : 384 Kbps
Channel(s)                               : 6 channels
Channel positions                        : Front: L C R, Side: L R, LFE
Sampling rate                            : 48.0 KHz
Bit depth                                : 16 bits
Compression mode                         : Lossy
Stream size                              : 317 MiB (21%)
Alignment                                : Split accross interleaves
Interleave, duration                     : 42 ms (1.00 video frame)
Interleave, preload duration             : 500 ms
Сравнениеhttp://torrentfilm.net/forum/viewtopic.php?t=1745226
http://screenshotcomparison.com/comparison/84354 - видео
http://screenshotcomparison.com/comparison/84356 - аудио
у конкурента писал(а):Format settings, BVOP : 4
Спектр оригинала:
-
[Профиль] [ЛС]

Создавать темы 06-Авг-2015 23:17 (спустя 11 месяцев 23 дня)

Топик был перенесен из форума Фильмы до 2014 года в форум Фильмы до 2012 года
sergej644
 

Создавать темы 12-Июн-2016 08:50 (спустя 1 год 9 месяцев)

Топик был перенесен из форума Фильмы 2011 года в форум Фильмы 2006-2008 года
Russian Mafia
 
Показать сообщения:    

Текущее время: Сегодня 10:53

Часовой пояс: GMT



Вы не можете начинать темы
Вы не можете отвечать на сообщения
Вы не можете редактировать свои сообщения
Вы не можете удалять свои сообщения
Вы не можете голосовать в опросах
Вы не можете прикреплять файлы к сообщениям
Вы не можете скачивать файлы