Марко Поло / Marco Polo [S01-02] (2014-2016) WEBRip от Generalfilm | КПК | AlexFilm

 
Автор Сообщение

Russian Mafia ®

Пол:

Стаж: 1 год 8 месяцев

Сообщений: 4252



Награды: 10 (Подробнее)

Mega Seeder 3 (Количество: 1) Top Releaser 5 (Количество: 1) Top Releaser 4 (Количество: 1)
Торрент-статистика

Создавать темы 30-Июл-2016 12:57

[Цитировать]

Информация о фильме
Название: Марко Поло
Оригинальное название: Оригинальное название (для иностранных фильмов)
Год выхода: 2014
Жанр: Приключения
Режиссер: Дэвид Петрарка, Алик Сахаров, Хоаким Роннинг
В ролях: Лоренцо Рикельми, Чин Хань, Рик Юн, Фиш Чаар, Джоан Чен, Оливия Ченг, Реми Хий, Ули Латукефу, Эндрю Нг, Вун Янг Парк, Амр Вакед
О фильме:
Данный сериал посвящен неординарному путешественнику и исследователю Марко Поло, который вошел в анналы мировой истории своими грандиозными путешествиями и любопытными открытиями. В тринадцатом веке во время очередной экспедиции Марко Поло удалось достичь территории Китая, и на новых землях исследователю предстояло пережить самые яркие моменты в своей жизни. Марко Поло всегда был открыт для чего-то нового и интересного, поэтому восточные земли порадовали его многими интересными вещами и происшествиями.

Страна: США
Студия: Electus, Weinstein Company
Продолжительность: 21 x ~ 00:50:00
Перевод: Профессиональный (многоголосый, закадровый) [AlexFilm]
Файл
Формат: MP4
Качество: WEBRip | КПК
Видео: MPEG-4 AVC (x264), 640x320, ~500 kbps, 23.976 fps
Аудио: AAC LC, 48.0 KHz, 2 ch, 128 Kbps
Субтитры: Нет
Семпл

Скриншоты

MI

Complete name : E:KinoMarko.Polo.AVC.KPK.GFMarko.Polo.S02.2015-2016.AVC.WEBRip.AF.KPK.GFMarko.Polo.s02e03.2015.AVC.WEBRip.AF.KPK.GF.mp4
Format : MPEG-4
Codec ID : M4V (isom/iso2/avc1)
File size : 227 MiB
Duration : 50mn 3s
Overall bit rate mode : Variable
Overall bit rate : 634 Kbps
Writing application : Lavf53.19.0
Video
ID : 1
Format : AVC
Format/Info : Advanced Video Codec
Format profile : High@L4.1
Format settings, CABAC : Yes
Format settings, ReFrames : 8 frames
Codec ID : avc1
Codec ID/Info : Advanced Video Coding
Duration : 50mn 3s
Source duration : 21mn 25s
Bit rate : 500 Kbps
Width : 640 pixels
Height : 320 pixels
Display aspect ratio : 2.000
Frame rate mode : Constant
Frame rate : 23.976 fps
Color space : YUV
Chroma subsampling : 4:2:0
Bit depth : 8 bits
Scan type : Progressive
Bits/(Pixel*Frame) : 0.102
Stream size : 179 MiB (79%)
Source stream size : 179 MiB (79%)
Writing library : x264 core 146 r2538 121396c
Encoding settings : cabac=1 / ref=8 / deblock=1:-2:-2 / analyse=0x3:0x133 / me=umh / subme=10 / psy=1 / psy_rd=1.00:0.00 / mixed_ref=1 / me_range=24 / chroma_me=1 / trellis=2 / 8x8dct=1 / cqm=0 / deadzone=21,11 / fast_pskip=1 / chroma_qp_offset=-2 / threads=12 / lookahead_threads=2 / sliced_threads=0 / nr=0 / decimate=0 / interlaced=0 / bluray_compat=0 / constrained_intra=0 / bframes=8 / b_pyramid=2 / b_adapt=2 / b_bias=0 / direct=3 / weightb=1 / open_gop=0 / weightp=2 / keyint=240 / keyint_min=121 / scenecut=40 / intra_refresh=0 / rc_lookahead=40 / rc=2pass / mbtree=1 / bitrate=500 / ratetol=1.0 / qcomp=0.60 / qpmin=0 / qpmax=69 / qpstep=4 / cplxblur=20.0 / qblur=0.5 / ip_ratio=1.40 / aq=1:1.00
Menus : 3
mdhd_Duration : 3003839
Audio
ID : 2
Format : AAC
Format/Info : Advanced Audio Codec
Format profile : LC
Codec ID : 40
Duration : 50mn 3s
Bit rate mode : Variable
Bit rate : 128 Kbps
Channel(s) : 2 channels
Channel positions : Front: L R
Sampling rate : 48.0 KHz
Frame rate : 46.875 fps (1024 spf)
Compression mode : Lossy
Stream size : 45.8 MiB (20%)
Default : Yes
Alternate group : 1
Menus : 3
[Профиль] [ЛС]
Кто просматривает тему:

Форум Тема Автор Размер
Фильмы 2015 года Английская испанка / La espanola inglesa (Марко А. Кастильо / Marco A. Castillo) [2015, Испания, история, экранизация, HDTVRip] Sub Rus (Андрей Бойко) + Original Spa TorrentFilm 1.39 GB
Военное дело, авиация и вооружение Виктор Марковский - Ил-76. Герой «Кандагара» (2010) PDF BOSS 91 MB
Военное дело, авиация и вооружение Виктор Марковский, Игорь Приходченко - Су-25 «Грач». Все о грозном штурмовике (2016) PDF BOSS 57 MB
Разная литература Владимир Марковский, Иван Белецкий - Сам себе пивовар (2015) PDF достали все 30 MB
Фильмы 2011 года Железобетон / Cemento Armato (Марко Мартани / Marco Martani) [2007, Италия, драма, криминал, триллер, DVDRip] VO (Paul B.) + Original Ita TorrentFilm 829 MB
Классика зарубежного кино Жена-любовница / Mogliamante (Марко Викарио)(1977) DVDRip | L1 sergej644 1.42 GB
Документальные HD За кадром с Марком Подрабинеком (8 выпускoв) [2011-2013, Документальный цикл, познавательный, HDTV 1080p] TorrentFilm 8.71 GB
Фильмы 2014 года Игра в доктора / Doktorspiele (Марко Петри) [2014, Комедия] DVDRip | L1 BOSS 1.41 GB
Показать сообщения:    

Текущее время: Сегодня 04:44

Часовой пояс: GMT



Вы не можете начинать темы
Вы не можете отвечать на сообщения
Вы не можете редактировать свои сообщения
Вы не можете удалять свои сообщения
Вы не можете голосовать в опросах
Вы не можете прикреплять файлы к сообщениям
Вы не можете скачивать файлы