Марко Поло / Marco Polo (Кевин Коннор / Kevin Connor) [2007, США, драма, приключения, BDRip] MVO

 
Автор Сообщение

TorrentFilm ®

Пол:

Стаж: 1 год 11 месяцев

Сообщений: 7741



Награды: Нет

Торрент-статистика

Создавать темы 24-Дек-2015 00:21

[Цитировать]

Марко Поло / Marco Polo
Страна: США
Жанр: драма, приключения
Год выпуска: 2007
Продолжительность: 01:28:47 | 01:28:15
Перевод: Профессиональный (многоголосый закадровый)
Cубтитры: нет
Оригинальная аудиодорожка: нет-Режиссер: Кевин Коннор / Kevin Connor-В ролях: Иен Сомерхолдер, Б.Д. Вонг, Дезире Энн Сиахаан, Брайан Деннехи, Кэй Тонг Лим, Кристиан Ли, Луо Ян, Майкл Ман-Кин Чоу, Марк Джакс, Алан Ширман-Описание: 13 век. Венецианский торговец Марко Поло сопровождает двух священников в путешествии на Восток ко двору Кублай Хана, монгольского завоевателя Востока с тем, чтобы обратить самую многочисленную и богатую нацию в христианство. Однако священники сомневаются в существовании китайского государства.
Ведь, в конечном счете, Господь положил Европу в центр Вселенной, и что может быть за ее пределами, как не одно сплошное варварство? Не будучи готовыми рисковать своими жизнями в горах Памира, священники отступают и бросают Марко, его отца и дядю наедине со снежными бурями и знойными пустынями. Измученные голодом, жаждой и палящий солнцем они продвигаются вперед в сердце владений Хана.-Качество видео: BDRip | Исходник
Формат видео: AVI
Видео: 704x400 (1.76:1), 23.976 fps, XviD build 50 ~1966 kbps avg, 0.29 bit/pixel
Видео: 704x400 (1.76:1), 23.976 fps, XviD build 50 ~1980 kbps avg, 0.29 bit/pixel
Аудио: 48 kHz, AC3 Dolby Digital, 3/2 (L,C,R,l,r) + LFE ch, ~384 kbps-Скачать сэмпл-MediaInfo
Format                      : AVI
Format/Info                 : Audio Video Interleave
File size                   : 1.46 GiB
Duration                    : 1h 28mn
Overall bit rate            : 2 360 Kbps
Writing application         : VirtualDubMod 1.5.10.3 | www.virtualdub-fr.org || (build 2550/release)
Writing library             : VirtualDubMod build 2550/release
Video
ID                          : 0
Format                      : MPEG-4 Visual
Format profile              : Advanced Simple@L5
Format settings, BVOP       : 1
Format settings, QPel       : No
Format settings, GMC        : No warppoints
Format settings, Matrix     : Custom
Codec ID                    : XVID
Codec ID/Hint               : XviD
Duration                    : 1h 28mn
Bit rate                    : 1 966 Kbps
Width                       : 704 pixels
Height                      : 400 pixels
Display aspect ratio        : 16:9
Frame rate                  : 23.976 (23976/1000) fps
Color space                 : YUV
Chroma subsampling          : 4:2:0
Bit depth                   : 8 bits
Scan type                   : Progressive
Compression mode            : Lossy
Bits/(Pixel*Frame)          : 0.291
Stream size                 : 1.22 GiB (83%)
Writing library             : XviD 1.2.1 (UTC 2008-12-04)
Audio
ID                          : 1
Format                      : AC-3
Format/Info                 : Audio Coding 3
Mode extension              : CM (complete main)
Format settings, Endianness : Big
Codec ID                    : 2000
Duration                    : 1h 28mn
Bit rate mode               : Constant
Bit rate                    : 384 Kbps
Channel(s)                  : 6 channels
Channel positions           : Front: L C R, Side: L R, LFE
Sampling rate               : 48.0 KHz
Frame rate                  : 31.250 fps (1536 spf)
Compression mode            : Lossy
Stream size                 : 244 MiB (16%)
Alignment                   : Split accross interleaves
Interleave, duration        : 42 ms (1.00 video frame)
Interleave, preload duratio : 500 ms

Скриншоты

[Профиль] [ЛС]
Кто просматривает тему:

Форум Тема Автор Размер
Фильмы 2015 года Английская испанка / La espanola inglesa (Марко А. Кастильо / Marco A. Castillo) [2015, Испания, история, экранизация, HDTVRip] Sub Rus (Андрей Бойко) + Original Spa TorrentFilm 1.39 GB
Военное дело, авиация и вооружение Виктор Марковский - Ил-76. Герой «Кандагара» (2010) PDF BOSS 91 MB
Военное дело, авиация и вооружение Виктор Марковский, Игорь Приходченко - Су-25 «Грач». Все о грозном штурмовике (2016) PDF BOSS 57 MB
Разная литература Владимир Марковский, Иван Белецкий - Сам себе пивовар (2015) PDF достали все 30 MB
Фильмы 2011 года Железобетон / Cemento Armato (Марко Мартани / Marco Martani) [2007, Италия, драма, криминал, триллер, DVDRip] VO (Paul B.) + Original Ita TorrentFilm 829 MB
Классика зарубежного кино Жена-любовница / Mogliamante (Марко Викарио)(1977) DVDRip | L1 sergej644 1.42 GB
Документальные HD За кадром с Марком Подрабинеком (8 выпускoв) [2011-2013, Документальный цикл, познавательный, HDTV 1080p] TorrentFilm 8.71 GB
Фильмы 2014 года Игра в доктора / Doktorspiele (Марко Петри) [2014, Комедия] DVDRip | L1 BOSS 1.41 GB
Показать сообщения:    

Текущее время: Сегодня 15:59

Часовой пояс: GMT



Вы не можете начинать темы
Вы не можете отвечать на сообщения
Вы не можете редактировать свои сообщения
Вы не можете удалять свои сообщения
Вы не можете голосовать в опросах
Вы не можете прикреплять файлы к сообщениям
Вы не можете скачивать файлы