Марко Поло. Загадки великого путешествия на Восток (Секретные материалы Марко Поло) / The Secret File of Marco Polo (документально-игровой, исторический) [2014 г., Документально-игровой, история, DVB]

 
Автор Сообщение

skorpionN ®

Пол:

Стаж: 2 года 6 месяцев

Сообщений: 804



Награды: 4 (Подробнее)

Mega Seeder 3 (Количество: 1) Mega Seeder 2 (Количество: 1) Top Releaser 2 (Количество: 1)
Торрент-статистика

Создавать темы 03-Сен-2017 06:44

[Цитировать]

Марко Поло. Загадки великого путешествия на Восток (Секретные материалы Марко Поло) / The Secret File of Marco Polo
Год выпуска: 2014
Страна: Франция, Германия, Arte and ZDF Enterprises
Жанр: Документально-игровой, история
Продолжительность: 00:50:29
Перевод: Профессиональный (двухголосый), переведено и озвучено на студии "SDI Media"
Режиссер: Режиссер: Габриель Венглер / Gabriele Wengler
В ролях: Бен Браун / Ben Braunco, Пауль Матич / Paul Matić, Том Фогт / Tom Vogt
Описание: 13 век. Юный Марко Поло собирается отправиться в Китай. Его путешествие будет столь обширным и захватывающим, что он опишет его в книге, которая станет бестселлером позднего Средневековья.
На самом ли деле Марко Поло, самый прославленный путешественник в истории, был в Китае? Споры продолжаются до сих пор. Западные ученые и китайские историки раскрывают новые данные, доказывающие, что сын венецианских торговцев в самом деле побывал в Китае.
Качество: DVB
Формат: MPEG -TS
Видео кодек: MPEG2
Аудио кодек: MPEG Audio
Видео: 720х576 (4:3) анаморфный (768x576) 25fps ~1980 Kbps
Аудио: MPEG Audio 2 2ch, 48kHz, 192 kbps

Скриншоты


MediaInfo:

Format : MPEG-TS
File size : 826 MiB
Duration : 50 min 28 s
Overall bit rate mode : Variable
Overall bit rate : 2 287 kb/s
Video
ID : 205 (0xCD)
Menu ID : 1805 (0x70D)
Format : MPEG Video
Format version : Version 2
Format profile : Main@Main
Format settings, BVOP : Yes
Format settings, Matrix : Custom
Format settings, GOP : M=3, N=15
Format settings, picture struc : Frame
Codec ID : 2
Duration : 50 min 28 s
Bit rate mode : Variable
Bit rate : 1 980 kb/s
Maximum bit rate : 9 800 kb/s
Width : 720 pixels
Height : 576 pixels
Display aspect ratio : 4:3
Frame rate : 25.000 FPS
Standard : PAL
Color space : YUV
Chroma subsampling : 4:2:0
Bit depth : 8 bits
Scan type : Interlaced
Scan order : Top Field First
Compression mode : Lossy
Bits/(Pixel*Frame) : 0.191
Time code of first frame : 00:00:00:00
Time code source : Group of pictures header
GOP, Open/Closed : Open
GOP, Open/Closed of first fram : Closed
Stream size : 715 MiB (87%)
Audio
ID : 305 (0x131)
Menu ID : 1805 (0x70D)
Format : MPEG Audio
Format version : Version 1
Format profile : Layer 2
Codec ID : 3
Duration : 50 min 28 s
Bit rate mode : Constant
Bit rate : 192 kb/s
Channel(s) : 2 channels
Sampling rate : 48.0 kHz
Compression mode : Lossy
Stream size : 69.3 MiB (8%)
Language : Russian
[Профиль] [ЛС]
Кто просматривает тему:

Форум Тема Автор Размер
Фильмы 2015 года Английская испанка / La espanola inglesa (Марко А. Кастильо / Marco A. Castillo) [2015, Испания, история, экранизация, HDTVRip] Sub Rus (Андрей Бойко) + Original Spa TorrentFilm 1.39 GB
Бокс, Бои без правил, К1 Бокс. Александр Усик - Марко Хук [09.09] (2017) HDTV 1080i BOSS 4.1 GB
Военное дело, авиация и вооружение Виктор Марковский - Ил-76. Герой «Кандагара» (2010) PDF BOSS 91 MB
Военное дело, авиация и вооружение Виктор Марковский, Игорь Приходченко - Су-25 «Грач». Все о грозном штурмовике (2016) PDF BOSS 57 MB
Военное дело, авиация и вооружение Виктор Марковский, Игорь Приходченко - Ту-22. Стратегический бомбардировщик, ракетоносец, разведчик (2016) PDF BOSS 124 MB
Разная литература Владимир Марковский, Иван Белецкий - Сам себе пивовар (2015) PDF достали все 30 MB
Фильмы 2011 года Железобетон / Cemento Armato (Марко Мартани / Marco Martani) [2007, Италия, драма, криминал, триллер, DVDRip] VO (Paul B.) + Original Ita TorrentFilm 829 MB
Классика зарубежного кино Жена-любовница / Mogliamante (Марко Викарио)(1977) DVDRip | L1 sergej644 1.42 GB
Показать сообщения:    

Текущее время: Сегодня 17:29

Часовой пояс: GMT



Вы не можете начинать темы
Вы не можете отвечать на сообщения
Вы не можете редактировать свои сообщения
Вы не можете удалять свои сообщения
Вы не можете голосовать в опросах
Вы не можете прикреплять файлы к сообщениям
Вы не можете скачивать файлы