Марихуановые пацаны / Kid cannabis (Джон Стокуэлл / John Stockwell) [2014, США, трагикомедия, DVDRip] VO (Andi)

 
Автор Сообщение

Создавать темы 13-Июл-2014 16:35

Марихуановые пацаны / Kid cannabis
Страна: США
Жанр: трагикомедия
Год выпуска: 2014
Продолжительность: 01:49:38
Перевод: Одноголосый закадровый (Andi)
Cубтитры: нет
Режиссер: Джон Стокуэлл / John Stockwell
Премьера: 16 марта 2014 (Международный Кинофестиваль в Майами)
Возрастные ограничения: 18 +
В ролях: Джонатан Даниэль Браун, Кенни Вормалд, Джон МакГинли, Брюс Ходжсон, Рон Перлман
Описание: Основанный на реальных событиях фильм рассказывает историю компании подростков из провинции, которые однажды задумали провести через канадскую границу партию марихуаны. То, что началось как экстремальное приключение (и попытка подзаработать на карманные расходы), привело к созданию подпольной империи с многомиллионным товарооборотом, кровавым разборкам и одному из самых громких скандалов в новейшей американской истории...
Доп. информация: Все герои и события, показанные в фильме, являются реальными. В свое время история Нэйта Нормана - "школьника-контрабандиста" - потрясла Америку.
Работая над фильмом, его создатели встречались со всеми участниками этой истории и поэтому у них получилась вполне достоверная реконструкция событий.
К достоинствам фильма стоит отнести то, что это - непредвзятый взгляд, здесь нет оценочных суждений. И это дает зрителям неограниченные возможности интерпретировать эту историю, как они пожелают.
Кто-то увидит здесь манифест за легализацию марихуаны. Кто-то - поучительную притчу в духе "его пример - другим наука".
Предупреждение: фильм содержит сцены с элементами эротики
Над релизом работали
перевод: Михаил Васильев aka lakdhf
озвучка: Andi
Релиз-группа

желает всем приятного просмотра
Сэмпл: https://yadi.sk/i/5PplU6eaWCnd3
Качество видео: DVDRip
Формат видео: AVI
Видео: 755 Kbps, 640x352 (16:9) 23 976 fps, MPEG 4 XviD
Аудио: 128 Kbps, 48.0 KHz, 16 bits, 2 ch, AC 3

MediaInfo

General
Complete name : C:\Users\Владелец\Downloads\марих.пацаны.avi
Format : AVI
Format/Info : Audio Video Interleave
File size : 700 MiB
Duration : 1h 49mn
Overall bit rate : 892 Kbps
Writing application : VirtualDubMod 1.5.10.2 (build 2540/release)
Writing library : VirtualDubMod build 2540/release
Video
ID : 0
Format : MPEG-4 Visual
Format profile : Advanced Simple@L5
Format settings, BVOP : 4
Format settings, QPel : No
Format settings, GMC : No warppoints
Format settings, Matrix : Default (H.263)
Codec ID : XVID
Codec ID/Hint : XviD
Duration : 1h 49mn
Bit rate : 755 Kbps
Width : 640 pixels
Height : 352 pixels
Display aspect ratio : 16:9
Frame rate : 23.976 fps
Color space : YUV
Chroma subsampling : 4:2:0
Bit depth : 8 bits
Scan type : Progressive
Compression mode : Lossy
Bits/(Pixel*Frame) : 0.140
Stream size : 592 MiB (85%)
Writing library : XviD 64
Audio
ID : 1
Format : AC-3
Format/Info : Audio Coding 3
Mode extension : CM (complete main)
Format settings, Endianness : Big
Codec ID : 2000
Duration : 1h 49mn
Bit rate mode : Constant
Bit rate : 128 Kbps
Channel(s) : 2 channels
Channel positions : Front: L R
Sampling rate : 48.0 KHz
Bit depth : 16 bits
Compression mode : Lossy
Stream size : 100 MiB (14%)
Alignment : Split accross interleaves
Interleave, duration : 42 ms (1.00 video frame)
Interleave, preload duration : 500 ms

Скриншот c названием фильма

Скриншоты







 
Показать сообщения:    

Текущее время: Сегодня 08:28

Часовой пояс: GMT



Вы не можете начинать темы
Вы не можете отвечать на сообщения
Вы не можете редактировать свои сообщения
Вы не можете удалять свои сообщения
Вы не можете голосовать в опросах
Вы не можете прикреплять файлы к сообщениям
Вы не можете скачивать файлы