Марионетки (1933) DVDRip от New-Team

 
Автор Сообщение

sergej644 ®

Пол:

Стаж: 4 года 11 месяцев

Сообщений: 6045

Откуда: Soviet Union



Награды: Нет

Торрент-статистика

Создавать темы 17-Ноя-2014 18:33

[Цитировать]

Страна: СССР
Производство: Межрабпомфильм
Жанр: драма, комедия
Год выпуска: 1933
Продолжительность: 01:28:03
Перевод: не требуется
Оригинальная аудиодорожка: русский
Cубтитры: нет
Режиссер: Яков Протазанов
В ролях:
Леонид Леонидов, Петр Галаджев, Михаил Климов, Анатолий Кторов, Сергей Мартинсон, Николай Радин, Сергей Тихонравов, Валентина Токарская, Константин Зубов, Василий Топорков, Иван Бобров, Сергей Комаров, Михаил Розен-Санин, Иван Зайцев, Михаил Холодов, Александр Жуков, Георгий Милляр...
Описание:
Герои фильма носят имена семи нот — До, Ре, Ми и т. д. Дело происходит в некоем европейском королевстве Буфферия, где заправляют фашисты и капиталисты. Умирает король, не оставив наследника, и наиболее подходящей кандидатурой на престол кажется принц До, погрязший в долгах. Но по дороге в столицу До выпадает из аэроплана в реку, а когда, чудом оставшись в живых, он добирается — оказывается, что принятый за него парикмахер Соль сам объявлен королём. Поначалу Соль теряется, но его ответы невпопад быстро истолковываются «как надо», в духе политической ситуации. Так, на вопрос о мерах по урегулированию государственного кризиса Соль вспоминает «горячие припарки, свинцовые примочки», что приводит в восторг лидера фашистов Фа. Постепенно Соль входит в роль и делает всё более резкие заявления.- -Исходник: DVD5 R5
Тип релиза: DVDRip
Контейнер: AVI
Видео: 688x512 (4:3), 25 fps, XviD ~ 2226 kbps avg, 0.253 bit/pixel
Аудио: 48 kHz, Dolby Digital AC3 1.0, 128 kbps
Раздача от:

MediaInfo

Общее
Полное имя : Marionetki.1933.DVDRip_[New-team]_by_AVP_Studio.avi
Формат : AVI
Формат/Информация : Audio Video Interleave
Размер файла : 1,45 Гбайт
Продолжительность : 1 ч. 28 м.
Общий поток : 2364 Кбит/сек
Программа кодирования : VirtualDubModRus 1.5.10.2 (build 2542/release)
Библиотека кодирования : VirtualDubMod build 2542/release
Видео
Идентификатор : 0
Формат : MPEG-4 Visual
Профиль формата : Advanced Simple@L5
Параметр BVOP формата : 1
Параметр QPel формата : Нет
Параметр GMC формата : Без точки перехода
Параметр матрицы формата : Выборочная
Идентификатор кодека : XVID
Идентификатор кодека/Подсказка : XviD
Продолжительность : 1 ч. 28 м.
Битрейт : 2226 Кбит/сек
Ширина : 688 пикселей
Высота : 512 пикселей
Соотношение сторон : 4:3
Частота кадров : 25,000 кадров/сек
Цветовое пространство : YUV
Субдискретизация насыщенности : 4:2:0
Битовая глубина : 8 бит
Тип развёртки : Прогрессивная
Метод сжатия : С потерями
Бит/(Пиксели*Кадры) : 0.253
Размер потока : 1,37 Гбайт (94%)
Библиотека кодирования : XviD 73
Аудио
Идентификатор : 1
Формат : AC-3
Формат/Информация : Audio Coding 3
Расширение режима : CM (complete main)
Параметр Endianness формата : Big
Идентификатор кодека : 2000
Продолжительность : 1 ч. 28 м.
Вид битрейта : Постоянный
Битрейт : 128 Кбит/сек
Каналы : 1 канал
Расположение каналов : Front: C
Частота : 48,0 КГц
Битовая глубина : 16 бит
Метод сжатия : С потерями
Размер потока : 80,6 Мбайт (5%)
Выравнивание : Разделение по промежуткам
Продолжительность промежутка : 40 мс. (1,00 видеокадр)
Время предзагрузки промежутка : 500 мс

Скриншоты

[Профиль] [ЛС]

Создавать темы 06-Авг-2015 22:03 (спустя 8 месяцев 19 дней)

Топик был перенесен из форума Кино СССР в форум Кино СССР
sergej644
 
Показать сообщения:    

Текущее время: Сегодня 00:20

Часовой пояс: GMT



Вы не можете начинать темы
Вы не можете отвечать на сообщения
Вы не можете редактировать свои сообщения
Вы не можете удалять свои сообщения
Вы не можете голосовать в опросах
Вы не можете прикреплять файлы к сообщениям
Вы не можете скачивать файлы