Маре, наша история любви / Mare, Nossa Historia de Amor (Лусия Мурат / Lucia Murat) [2007, Бразилия, Франция, Уругвай, мелодрама, криминальная драма, мюзикл, DVB-AVC] MVO (Kino Polska)

 
Автор Сообщение

TorrentFilm ®

Пол:

Стаж: 2 года

Сообщений: 7741



Награды: Нет

Торрент-статистика

Создавать темы 10-Сен-2015 00:10

[Цитировать]

Маре, наша история любви
Maré, Nossa História de Amor- Страна: Бразилия, Франция, Уругвай
Жанр: мелодрама, криминальная драма, мюзикл
Год выпуска: 2007
Продолжительность: 01:41:04Перевод: Профессиональный (многоголосый закадровый) по заказу Kino Polska на производственно-технической базе Студии "Акцент"
Cубтитры: нет
Режиссер: Лусия Мурат / Lúcia Murat
В ролях: Кристина Лаго / Cristina Lago (Analídia), Винисиус Д'Блак / Vinícius D'Black (Jonathan), Анжо Лопес / Anjo Lopes (Anjo), Мариса Орт / Marisa Orth (Fernanda), Бабу Сантана / Babu Santana (Dudu)
Описание: Джонатан и Аналидия полюбили друг друга с первого взгляда. Они занимаются в одной танцевальной группе, но живут в разных частях знаменитого района Маре, где среди бразильских трущоб музыка и танцы существуют бок о бок с криминальными реалиями. Учительница танцев предлагает местным ребятам поставить на современный лад вечную историю про Ромео и Джульетту.
Доп. информация: Filmbox IPTV. В отличие от имеющегося на трекере TVRip с МVO (студия "Лексикон" по заказу "Камертон-Медиа") здесь другой перевод MVO (Kino Polska).
Награды: Специальный приз жюри Rio de Janeiro International Film Festival 2007 лучшему актеру второго плана (Babu Santana); приз лучшему режиссеру Los Angeles Latino International Film Festival 2008; премия за лучшую музыку Havana Film Festival 2008; др. награды. Участник секции "Панорама" Berlin International Film Festival 2008. Показ в павильоне "кинотеатров Юга" Cannes Film Festival 2008.

Качество видео: DVB-AVC
Формат видео: MKV
Видео: AVC (H.264), 720x576@1024x576 (16:9), 25 fps, ~1493 kbps avg, 0.144 bit/pixel
Аудио: MPEG Audio 2, 2 ch, 48 kHz, ~128.00 kbps avg

MediaInfo

ОбщееУникальный идентификатор : 186011262900202101089833149943226389510 (0x8BF07753B95F71F3B25D8767BB895406)Полное имя : F:\My Torrents 3\[apreder]Mare_Nossa_Historia_de_Amor(2007)DVB.mkvФормат : MatroskaВерсия формата : Version 2Размер файла : 1,17 ГбайтПродолжительность : 1 ч. 41 м.Общий поток : 1654 Кбит/секДата кодирования : UTC 2015-09-08 17:36:11Программа кодирования : mkvmerge v8.3.0 ('Over the Horizon') 64bitБиблиотека кодирования : libebml v1.3.1 + libmatroska v1.4.2Attachements : cover.jpg / cover_small.jpgTITLE : Maré, Nossa História de AmorIMDB : tt1116944DATE_RELEASED : 2007-00-00LAW_RATING : 16+GENRE : Drama, MusicalACTOR : Cristina Lago, Vinícius D'BlackDIRECTOR : Lúcia MuratKEYWORDS : torrentfilm.net
ВидеоИдентификатор : 1Формат : AVCФормат/Информация : Advanced Video CodecПрофиль формата : High@L3Параметр CABAC формата : ДаПараметр ReFrames формата : 3 кадраПараметр GOP формата : M=1, N=25Идентификатор кодека : V_MPEG4/ISO/AVCПродолжительность : 1 ч. 41 м.Битрейт : 1493 Кбит/секШирина : 720 пикселейВысота : 576 пикселейСоотношение сторон : 16:9Соотношение сторон в оригинале : 16:9Режим частоты кадров : ПостоянныйЧастота кадров : 25,000 кадров/секСтандарт вещания : PALЦветовое пространство : YUVСубдискретизация насыщенности : 4:2:0Битовая глубина : 8 битТип развёртки : ПрогрессивнаяБит/(Пиксели*Кадры) : 0.144Размер потока : 1,05 Гбайт (90%)Default : ДаForced : Нет
АудиоИдентификатор : 2Формат : MPEG AudioВерсия формата : Version 1Профиль формата : Layer 2Идентификатор кодека : A_MPEG/L2Идентификатор кодека/Подсказка : MP2Продолжительность : 1 ч. 41 м.Вид битрейта : ПостоянныйБитрейт : 128 Кбит/секКаналы : 2 каналаЧастота : 48,0 КГцМетод сжатия : С потерямиЗадержка видео : -4 мс.Размер потока : 92,5 Мбайт (8%)Язык : RussianDefault : ДаForced : Нет

Скриншот c названием фильма

Скриншоты


Резервные скриншоты


- [2'589]
[Профиль] [ЛС]
Кто просматривает тему:

Показать сообщения:    

Текущее время: Сегодня 11:54

Часовой пояс: GMT



Вы не можете начинать темы
Вы не можете отвечать на сообщения
Вы не можете редактировать свои сообщения
Вы не можете удалять свои сообщения
Вы не можете голосовать в опросах
Вы не можете прикреплять файлы к сообщениям
Вы не можете скачивать файлы