Марго на свадьбе / Margot at the Wedding (Ноа Баумбах / Noa Baumabach) [2007, США, драма, комедия, DVDRip] 2хDVO + Original Eng

 
Автор Сообщение

sergej644 ®

Пол:

Стаж: 4 года 11 месяцев

Сообщений: 6046

Откуда: Soviet Union



Награды: Нет

Торрент-статистика

Создавать темы 27-Авг-2014 11:46

[Цитировать]

Марго на свадьбе / Margot at the Wedding
Страна: США
Студия: Scott Rudin Productions
Жанр: драма, комедия
Год выпуска: 2007
Продолжительность: 01:28:52
Перевод 1: Профессиональный (двухголосый закадровый) Paramount Channel
Перевод 2: Профессиональный (двухголосый закадровый) НТВ+
Cубтитры: нет
Оригинальная аудиодорожка: английский
Режиссер: Ноа Баумбах / Noa Baumabach
В ролях: Николь Кидман / Nicole Kidman, Дженнифер Джейсон Ли / Jennifer Jason Leigh, Джек Блэк / Jack Black, Зейн Пэйс / Zane Pais, Сьюзэн Блэкуелл / Susan Blackwell, Флора Кросс / Flora Cross, Сет Барриш / Seth Barrish, Мэттью Аркин / Matthew Arkin, Майкл Каллен / Michael Cullen, Энид Грэхэм / Enid Graham, Софи Нювейде / Sophie Nyweide
Описание: Марго решает навестить свою сестру Полин после получения известия о предстоящем замужестве родственницы — удивительно, но ее выбор пал на ничем не примечательного Малькольма. Вместе с Марго в поездку отправляется и ее сын Клод.
II Сэмпл II IMDB II
Доп. информация:
За исходник спасибо agaraghh
Первая дорога записана с т/к Paramount Channel
Качество видео: DVDRip
Формат видео: AVI
Видео: Xvid 720x400 (16:9) 25.0fps Bit rate 2364Kbps b/p 0.328
Аудио 1: AC3 48.0 KHz 2ch. 192kbps rus dvo Paramount Channel
Аудио 2: AC3 48.0 KHz 6ch. 448kbps rus dvo НТВ+
Аудио 3: AC3 48.0 KHz 6ch. 448kbps eng

MediaInfo

Общее
Полное имя : E:\torrent\Margo.at.the.Wedding.2007.DVDrip.avi
Формат : AVI
Формат/Информация : Audio Video Interleave
Профиль формата : OpenDML
Размер файла : 2,16 Гбайт
Продолжительность : 1 ч. 28 м.
Общий поток : 3476 Кбит/сек
Программа кодирования : VirtualDubMod 1.5.10.3 (build 2550/release)
Библиотека кодирования : VirtualDubMod build 2550/release
Видео
Идентификатор : 0
Формат : MPEG-4 Visual
Профиль формата : Advanced Simple@L5
Параметр BVOP формата : 2
Параметр QPel формата : Нет
Параметр GMC формата : Без точки перехода
Параметр матрицы формата : Default (H.263)
Идентификатор кодека : XVID
Идентификатор кодека/Подсказка : XviD
Продолжительность : 1 ч. 28 м.
Битрейт : 2364 Кбит/сек
Ширина : 720 пикселей
Высота : 400 пикселей
Соотношение сторон : 16:9
Частота кадров : 25,000 кадров/сек
Цветовое пространство : YUV
Субдискретизация насыщенности : 4:2:0
Битовая глубина : 8 бит
Тип развёртки : Прогрессивная
Метод сжатия : С потерями
Бит/(Пиксели*Кадры) : 0.328
Размер потока : 1,47 Гбайт (68%)
Библиотека кодирования : XviD 1.2.1 (UTC 2008-12-04)
Аудио #1
Идентификатор : 1
Формат : AC-3
Формат/Информация : Audio Coding 3
Расширение режима : CM (complete main)
Параметр Endianness формата : Big
Идентификатор кодека : 2000
Продолжительность : 1 ч. 28 м.
Вид битрейта : Постоянный
Битрейт : 192 Кбит/сек
Каналы : 2 канала
Расположение каналов : Front: L R
Частота : 48,0 КГц
Битовая глубина : 16 бит
Метод сжатия : С потерями
Размер потока : 122 Мбайт (6%)
Выравнивание : Разделение по промежуткам
Продолжительность промежутка : 40 мс. (1,00 видеокадр)
Время предзагрузки промежутка : 500 мс.
Аудио #2
Идентификатор : 2
Формат : AC-3
Формат/Информация : Audio Coding 3
Расширение режима : CM (complete main)
Параметр Endianness формата : Big
Идентификатор кодека : 2000
Продолжительность : 1 ч. 28 м.
Вид битрейта : Постоянный
Битрейт : 448 Кбит/сек
Каналы : 6 каналов
Расположение каналов : Front: L C R, Side: L R, LFE
Частота : 48,0 КГц
Битовая глубина : 16 бит
Метод сжатия : С потерями
Размер потока : 285 Мбайт (13%)
Выравнивание : Разделение по промежуткам
Продолжительность промежутка : 40 мс. (1,00 видеокадр)
Время предзагрузки промежутка : 500 мс.
Аудио #3
Идентификатор : 3
Формат : AC-3
Формат/Информация : Audio Coding 3
Расширение режима : CM (complete main)
Параметр Endianness формата : Big
Идентификатор кодека : 2000
Продолжительность : 1 ч. 28 м.
Вид битрейта : Постоянный
Битрейт : 448 Кбит/сек
Каналы : 6 каналов
Расположение каналов : Front: L C R, Side: L R, LFE
Частота : 48,0 КГц
Битовая глубина : 16 бит
Метод сжатия : С потерями
Размер потока : 285 Мбайт (13%)
Выравнивание : Разделение по промежуткам
Продолжительность промежутка : 40 мс. (1,00 видеокадр)
Время предзагрузки промежутка : 500 мс.

Скриншот c названием фильма

Скриншоты


--
[Профиль] [ЛС]

Создавать темы 06-Авг-2015 23:06 (спустя 11 месяцев 10 дней)

Топик был перенесен из форума Фильмы до 2014 года в форум Фильмы до 2012 года
sergej644
 
Показать сообщения:    

Текущее время: Сегодня 13:01

Часовой пояс: GMT



Вы не можете начинать темы
Вы не можете отвечать на сообщения
Вы не можете редактировать свои сообщения
Вы не можете удалять свои сообщения
Вы не можете голосовать в опросах
Вы не можете прикреплять файлы к сообщениям
Вы не можете скачивать файлы