Маргарита / Marguerite (2015) BDRemux 1080p от ExKinoRay | iTunes

 
Автор Сообщение

Russian Mafia ®

Пол:

Стаж: 1 год 8 месяцев

Сообщений: 4256



Награды: 10 (Подробнее)

Mega Seeder 4 (Количество: 1) Top Releaser 5 (Количество: 1) Top Releaser 4 (Количество: 1)
Торрент-статистика

Создавать темы 06-Авг-2016 02:39

[Цитировать]

Информация о фильме
Название: Маргарита
Оригинальное название: Marguerite
Год выхода: 2015
Жанр: Драма
Режиссер: Ксавье Джанноли
В ролях: Катрин Фро, Андре Маркон, Мишель Фо, Криста Тере, Сильвен Дьюэд, Обер Фенуй, София Лебутт, Тео Чолби, Астрид Ветналл
О фильме:
Париж 20-х годов. Каждый год любители музыки собираются в замке Маргариты Дюмон. Никто почти ничего не знает об этой женщине за исключением того, что она богата и что в ее жизни одна страсть: музыка. Маргарита поет. Она поет искренне, но очень фальшиво. Ей никто никогда не говорил о том, что её пение ужасно. Муж, родственники и друзья поддерживают Маргариту и она продолжает жить в иллюзии. Все осложняется в тот день, когда Маргарита, окончательно уверовав в свой талант певицы, решает выступить в Опере…

Страна: Франция, Чехия, Бельгия
Студия: Canal+ [fr], Centre National de la Cinématographie (CNC), CN5
Продолжительность: 02:08:49
Перевод: Профессиональный многоголосый (закадровый) | iTunes
Файл
Кодек: MPEG-4
Качество: BDRemux 1080p
Видео: 1920x1080, 30.0 Mbit/s, 24.000 fps
Звук:
Аудио #01: 48 kHz, AC3, 5.1, 384 Kbps | Профессиональный многоголосый (закадровый) | iTunes |
Аудио #02: 48 kHz, DTS-HD MA, 5.1, 4236 kbps | Оригинал |

MI

General
Unique ID : 171322434190640882322645754528147569501 (0x80E38028532218DE892748AF2D5DFB5D)
Complete name : G:VideoНовая папка (2)Marguerite.2015.MVO.BDREMUX.1080p.ExKinoRay.mkv
Format : Matroska
Format version : Version 4 / Version 2
File size : 30.3 GiB
Duration : 2h 8mn
Overall bit rate : 33.7 Mbps
Movie name : Marguerite.2015.MVO.BDREMUX.1080p.ExKinoRay
Encoded date : UTC 2016-08-05 19:23:14
Writing application : mkvmerge v8.3.0 ('Over the Horizon') 64bit
Writing library : libebml v1.3.1 + libmatroska v1.4.2
Video
ID : 1
Format : AVC
Format/Info : Advanced Video Codec
Format profile : High@L4.1
Format settings, CABAC : Yes
Format settings, ReFrames : 4 frames
Codec ID : V_MPEG4/ISO/AVC
Duration : 2h 8mn
Bit rate mode : Constant
Bit rate : 30.0 Mbps
Width : 1 920 pixels
Height : 1 080 pixels
Display aspect ratio : 16:9
Frame rate mode : Constant
Frame rate : 24.000 fps
Standard : NTSC
Color space : YUV
Chroma subsampling : 4:2:0
Bit depth : 8 bits
Scan type : Progressive
Bits/(Pixel*Frame) : 0.603
Stream size : 26.1 GiB (86%)
Language : English
Default : Yes
Forced : No
Color range : Limited
Color primaries : BT.709
Transfer characteristics : BT.709
Matrix coefficients : BT.709
Audio #1
ID : 2
Format : AC-3
Format/Info : Audio Coding 3
Mode extension : CM (complete main)
Format settings, Endianness : Big
Codec ID : A_AC3
Duration : 2h 8mn
Bit rate mode : Constant
Bit rate : 384 Kbps
Channel(s) : 6 channels
Channel positions : Front: L C R, Side: L R, LFE
Sampling rate : 48.0 KHz
Frame rate : 31.250 fps (1536 spf)
Compression mode : Lossy
Delay relative to video : 1s 212ms
Stream size : 353 MiB (1%)
Title : MVO [iTunes]
Language : Russian
Default : Yes
Forced : No
Audio #2
ID : 3
Format : DTS
Format/Info : Digital Theater Systems
Format profile : MA / Core
Mode : 16
Format settings, Endianness : Big
Codec ID : A_DTS
Duration : 2h 8mn
Bit rate mode : Variable / Constant
Bit rate : 4 236 Kbps / 1 509 Kbps
Channel(s) : 6 channels
Channel positions : Front: L C R, Side: L R, LFE
Sampling rate : 48.0 KHz
Frame rate : 93.750 fps (512 spf)
Bit depth : 24 bits
Compression mode : Lossless / Lossy
Stream size : 3.81 GiB (13%)
Title : Original
Language : French
Default : No
Forced : No
Menu
00:00:00.000 : en:1
00:01:55.000 : en:2
00:08:52.000 : en:3
00:19:17.000 : en:4
00:30:03.000 : en:5
00:42:02.000 : en:6
00:51:00.000 : en:7
01:01:28.000 : en:8
01:10:41.000 : en:9
01:20:40.000 : en:10
01:32:35.000 : en:11
01:44:57.000 : en:12

Скриншоты

Релиз от: Автор релиза:
[Профиль] [ЛС]
Кто просматривает тему:

Форум Тема Автор Размер
Pop NEVADA (Тамерлан и Алёна Омаргалиева) - Baby Be Mine (2015) MP3 BOSS 141 MB
Программы [Разное] Мастер и Маргарита v1.0 [Android 2.0+, RUS] TorrentFilm 3 MB
Мировая классика Ален Рене Лесаж - Похождения Жиль Бласа из Сантильяны [Иванова Маргарита, 2013] Magnat 1.53 GB
История, биографии, религия и искусство Анисимов Евгений - Россия в середине восемнадцатого века. Борьба за наследие Петра [Иванова Маргарита, 2015] Magnat 668 MB
Фильмы 2009 года Видения – Из жизни Хильдегарды фон Бинген / Vision - Aus dem Leben der Hildegard von Bingen (Маргарете фон Тротта / Margarethe von Trotta) [2009, Германия, Франция, Биография, Драма, DVDRip] VO... painkiller 1.32 GB
Фильмы 2009 года Видения – Из жизни Хильдегарды фон Бинген / Vision - Aus dem Leben der Hildegard von Bingen (Маргарете фон Тротта / Margarethe von Trotta) [2009, драма, биография, DVDRip] Rus Sub painkiller 1.32 GB
Мировая классика Голсуорси Джон - Новеллы [Иванова Маргарита, 2014] Magnat 1.01 GB
Мировая классика Джейн Остин - Мэнсфилд-парк [Маргарита Захария, 2014] Magnat 1.6 GB
Показать сообщения:    

Текущее время: Сегодня 08:12

Часовой пояс: GMT



Вы не можете начинать темы
Вы не можете отвечать на сообщения
Вы не можете редактировать свои сообщения
Вы не можете удалять свои сообщения
Вы не можете голосовать в опросах
Вы не можете прикреплять файлы к сообщениям
Вы не можете скачивать файлы