Маргарита Назарова [01-16 из 16] (2016) WEB-DLRip-AVC

 
Автор Сообщение

BOSS ®

Пол:

Стаж: 2 года 8 месяцев

Сообщений: 5861

Откуда: ODESSA



Награды: 20 (Подробнее)

Top Releaser 3 (Количество: 1) Mega Seeder 5 (Количество: 1) Top Keeper 4 (Количество: 1)
Торрент-статистика

Создавать темы 25-Апр-2016 16:44

[Цитировать]

Информация о фильме
Название: Маргарита Назарова
Год выхода: 2016
Жанр: Биография, мелодрама
Режиссер: Константин Максимов
В ролях: Ольга Погодина, Андрей Чернышов, Николай Добрынин, Андрей Егоров, Паоло Контичини, Алёна Ковалёва, Наталья Панова (II), Александр Песков, Владимир Качан, Маркус Кунце, Ирина Ильинская, Георгий Кульков, Пётр Романов, Валентина Кошкина, Валентин Валл, Иван Иванов (V), Арина Иванова, Виктор Конухин, Екатерина Мышлянова, Эльдар Трамов, Игорь Штернберг, Михаил Станкевич, Николай Скурт
О фильме:
Художественный фильм о легендарной дрессировщице и актрисе Маргарите Назаровой, которая прошла путь от жизни в немецком плену и презрения со стороны окружения до всемирно известной дрессировщицы и актрисы. Жизненный путь Маргариты Назаровой не был простым и лёгким. Встречались и недруги, и завистники, но не обошла стороной любовь и верные друзья. Её жизнь — ЧУДО, которое Маргарита Назарова подарила всем нам… Это чудо: её роли, её аттракционы, её любовь… к цирку, к мужу, к Родине…


Выпущено: Россия, ОДА-Фильм
Продолжительность: 16 x ~ 00:50:00
Файл
Кодек: х264
Качество: WEB-DLRip (AVC)
Видео: MPEG-4 AVC, ~ 2000 Кбит/с, 1024x576
Аудио: AC3, 2 ch, 192 Кбит/с
Перевод: не требуется

Инфо файл

raw [info]: 1024x576p 1:1 @ 25/1 fps (cfr)
x264 [info]: using SAR=1/1
x264 [info]: using cpu capabilities: MMX2 SSE2Fast SSSE3 SSE4.2 AVX
x264 [info]: profile High, level 4.1
x264 [info]: frame I:521 Avg QP:15.64 size: 51502
x264 [info]: frame P:22001 Avg QP:18.98 size: 20290
x264 [info]: frame B:55799 Avg QP:21.04 size: 5550
Общее
Уникальный идентификатор : 222157214373309186183579855515420553463 (0xA721EC53B5E42D43A386C61A276D70F7)
Полное имя : D:ВидеоMargarita.Nazarova.2016.WEB-DLRip(AVC) by Vovan366Margarita.Nazarova.(01.seriya).2016.WEB-DLRip(AVC) by Vovan366.mkv
Формат : Matroska
Версия формата : Version 2
Размер файла : 819 Мбайт
Продолжительность : 52 м.
Общий поток : 2193 Кбит/сек
Дата кодирования : UTC 2016-04-22 16:31:03
Программа кодирования : mkvmerge v6.1.0 ('Old Devil') built on Mar 4 2013 09:10:42
Библиотека кодирования : libebml v1.3.0 + libmatroska v1.4.0
Видео
Идентификатор : 1
Формат : AVC
Формат/Информация : Advanced Video Codec
Профиль формата : High@L4.1
Параметр CABAC формата : Да
Параметр ReFrames формата : 10 кадров
Идентификатор кодека : V_MPEG4/ISO/AVC
Продолжительность : 52 м.
Битрейт : 2000 Кбит/сек
Ширина : 1024 пикселя
Высота : 576 пикселей
Соотношение сторон : 16:9
Режим частоты кадров : Постоянный
Частота кадров : 25,000 кадров/сек
Цветовое пространство : YUV
Субдискретизация насыщенности : 4:2:0
Битовая глубина : 8 бит
Тип развёртки : Прогрессивная
Бит/(Пиксели*Кадры) : 0.136
Размер потока : 731 Мбайт (89%)
Библиотека кодирования : x264 core 130 r2273 b3065e6
Настройки программы : cabac=1 / ref=10 / deblock=1:-2:-2 / analyse=0x3:0x133 / me=umh / subme=10 / psy=1 / psy_rd=1.00:0.15 / mixed_ref=1 / me_range=32 / chroma_me=1 / trellis=2 / 8x8dct=1 / cqm=0 / deadzone=21,11 / fast_pskip=1 / chroma_qp_offset=-3 / threads=6 / lookahead_threads=1 / sliced_threads=0 / nr=0 / decimate=0 / interlaced=0 / bluray_compat=0 / constrained_intra=0 / bframes=8 / b_pyramid=2 / b_adapt=2 / b_bias=0 / direct=3 / weightb=1 / open_gop=0 / weightp=2 / keyint=250 / keyint_min=25 / scenecut=40 / intra_refresh=0 / rc=2pass / mbtree=0 / bitrate=2000 / ratetol=1.0 / qcomp=0.60 / qpmin=0 / qpmax=69 / qpstep=4 / cplxblur=20.0 / qblur=0.5 / ip_ratio=1.40 / pb_ratio=1.30 / aq=1:1.00
Default : Да
Forced : Нет
Основные цвета : BT.709
Характеристики трансфера : BT.709
Коэффициенты матрицы : BT.709
Аудио
Идентификатор : 2
Формат : AC-3
Формат/Информация : Audio Coding 3
Расширение режима : CM (complete main)
Параметр Endianness формата : Big
Идентификатор кодека : A_AC3
Продолжительность : 52 м.
Вид битрейта : Постоянный
Битрейт : 192 Кбит/сек
Каналы : 2 канала
Расположение каналов : Front: L R
Частота : 48,0 КГц
Битовая глубина : 16 бит
Метод сжатия : С потерями
Размер потока : 71,7 Мбайт (9%)
Default : Да
Forced : Нет

Скриншоты



[Профиль] [ЛС]
Кто просматривает тему:

Форум Тема Автор Размер
Отечественные cериалы Мастер и Маргарита [01-12 из 12] (2005) HDTV 1080i sokrat 37.38 GB
Показать сообщения:    

Текущее время: Сегодня 02:09

Часовой пояс: GMT



Вы не можете начинать темы
Вы не можете отвечать на сообщения
Вы не можете редактировать свои сообщения
Вы не можете удалять свои сообщения
Вы не можете голосовать в опросах
Вы не можете прикреплять файлы к сообщениям
Вы не можете скачивать файлы