Мара и Носитель Огня / Mara und der Feuerbringer (2015) BDRip 720p | L

 
Автор Сообщение

достали все ®

Пол:

Стаж: 1 год 8 месяцев

Сообщений: 6515



Награды: 12 (Подробнее)

Top Releaser 2 (Количество: 1) Mega Seeder 3 (Количество: 1) Mega Releaser 2 (Количество: 1)
Торрент-статистика

Создавать темы 16-Мар-2016 05:07

[Цитировать]

Информация о фильме
Название: Мара и Носитель Огня
Оригинальное название: Mara und der Feuerbringer
Год выхода: 2015
Жанр: фэнтези
Режиссер: Tommy Krappweis
В ролях: Lilian Prent, Ян Йозеф Лиферс, Эстер Швейнс, Кристоф Мария Хербст, Ева Хаберманн, Alex Simon, Карин С. Тице, Йозеф Ханнесшлегер, Леони Тепе, Oliver Deissenböck
О фильме: Пятнадцатилетняя Мара Лорбер узнаёт, что она должна спасти мир. Потому что древний скандинавский бог Локи может вырваться на свободу…

Выпущено: Германия / Bumm Film, Constantin Film, Rat Pack Filmproduktion GmbH, RTL Television
Продолжительность: 01:33:57
Озвучивание: Любительское (многоголосное) [Paradox & Omskbird records]
Роли озвучивали: Ольга Федорова, Павел Ярощик, Андрей Астров, Александр Дасевич и Ирина Воронова
Перевод: Наталья Рыбина
Примечание: Релиз без рекламы.
Файл
Формат: MKV
Качество: BDRip 720p
Видео: MPEG-4 AVC, 5500 kb/s, 1280x534
Аудио: Russian / German: AC3, 640 kb/s (6 ch)

MI

Format : Matroska
Format version : Version 2
File size : 4.45 GiB
Duration : 1h 33mn
Overall bit rate : 6 779 Kbps
Encoded date : UTC 2016-03-15 21:07:03
Writing application : mkvmerge v7.8.0 ('River Man') 32bit built on Apr 3 2015 12:11:22
Writing library : libebml v1.3.1 + libmatroska v1.4.2
Video
ID : 1
Format : AVC
Format/Info : Advanced Video Codec
Format profile : High@L4.1
Format settings, CABAC : Yes
Format settings, ReFrames : 12 frames
Codec ID : V_MPEG4/ISO/AVC
Duration : 1h 33mn
Bit rate : 5 500 Kbps
Width : 1 280 pixels
Height : 534 pixels
Display aspect ratio : 2.40:1
Frame rate mode : Constant
Frame rate : 24.000 fps
Color space : YUV
Chroma subsampling : 4:2:0
Bit depth : 8 bits
Scan type : Progressive
Bits/(Pixel*Frame) : 0.335
Stream size : 3.52 GiB (79%)
Writing library : x264 core 142 r2479 dd79a61
Encoding settings : cabac=1 / ref=12 / deblock=1:0:0 / analyse=0x3:0x113 / me=umh / subme=10 / psy=1 / psy_rd=1.05:0.10 / mixed_ref=1 / me_range=32 / chroma_me=1 / trellis=2 / 8x8dct=1 / cqm=0 / deadzone=21,11 / fast_pskip=0 / chroma_qp_offset=-2 / threads=12 / lookahead_threads=1 / sliced_threads=0 / nr=0 / decimate=1 / interlaced=0 / bluray_compat=0 / constrained_intra=0 / bframes=6 / b_pyramid=2 / b_adapt=2 / b_bias=0 / direct=3 / weightb=1 / open_gop=0 / weightp=2 / keyint=250 / keyint_min=24 / scenecut=40 / intra_refresh=0 / rc=2pass / mbtree=0 / bitrate=5500 / ratetol=1.0 / qcomp=0.70 / qpmin=0 / qpmax=69 / qpstep=4 / cplxblur=20.0 / qblur=0.5 / ip_ratio=1.40 / pb_ratio=1.30 / aq=2:1.00
Language : English
Default : Yes
Forced : No
Audio #1
ID : 2
Format : AC-3
Format/Info : Audio Coding 3
Mode extension : CM (complete main)
Format settings, Endianness : Big
Codec ID : A_AC3
Duration : 1h 33mn
Bit rate mode : Constant
Bit rate : 640 Kbps
Channel(s) : 6 channels
Channel positions : Front: L C R, Side: L R, LFE
Sampling rate : 48.0 KHz
Bit depth : 16 bits
Compression mode : Lossy
Stream size : 430 MiB (9%)
Language : Russian
Default : Yes
Forced : No
Audio #2
ID : 3
Format : AC-3
Format/Info : Audio Coding 3
Mode extension : CM (complete main)
Format settings, Endianness : Big
Codec ID : A_AC3
Duration : 1h 33mn
Bit rate mode : Constant
Bit rate : 640 Kbps
Channel(s) : 6 channels
Channel positions : Front: L C R, Side: L R, LFE
Sampling rate : 48.0 KHz
Bit depth : 16 bits
Compression mode : Lossy
Stream size : 430 MiB (9%)
Language : German
Default : No
Forced : No

Скриншоты




[Профиль] [ЛС]
Кто просматривает тему:

Показать сообщения:    

Текущее время: Сегодня 02:44

Часовой пояс: GMT



Вы не можете начинать темы
Вы не можете отвечать на сообщения
Вы не можете редактировать свои сообщения
Вы не можете удалять свои сообщения
Вы не можете голосовать в опросах
Вы не можете прикреплять файлы к сообщениям
Вы не можете скачивать файлы