Марафон (Карен Оганесян) [2013, Россия, комедия, HDTV 1080i] + Original Rus

 
Автор Сообщение

TorrentFilm ®

Пол:

Стаж: 2 года

Сообщений: 7741



Награды: Нет

Торрент-статистика

Создавать темы 03-Май-2015 00:02

[Цитировать]

Марафон Страна: Россия
Жанр: комедия
Год выпуска: 2013
Продолжительность: 01:40:57
Перевод: Не требуется
Cубтитры: нет
Оригинальная аудиодорожка: русский
Режиссер: Карен Оганесян
В ролях: Михаил Пореченков, Екатерина Васильева, Юлия Пересильд, Анатолий Белый, Игорь Савочкин, Ольга Волкова, Сергей Газаров, Анна Михалкова, Мария Аронова, Ирина Пивоварова
Описание: Жизнь Толика не удалась, спортивная карьера не состоялась, жена ушла к другому. Неуспешный, нелюбимый, безнадежный он потерял веру в себя. Все меняет случайная встреча со странной незнакомкой Анной Ильиничной, которая предлагает ему принять участие в необычном марафоне в далекой Америке…
Сэмпл: http://rusfolder.com/43392151

Тип релиза: HDTV 1080i
Контейнер: TS
Видео: AVC/H.264, 1920x1080 (16:9), 6582 Кбит/сек, 25.000 fps
Аудио 1: русский, MP2, 2ch, 48,0 КГц, 192 Кбит/сек
Аудио 2: русский, AC3, 6ch, 48,0 КГц, 448 Кбит/сек

MediaInfo

Общее
Идентификатор : 1 (0x1)
Полное имя : C:\Users\User\Desktop\Марафон.ts
Формат : MPEG-TS
Размер файла : 5,36 Гбайт
Продолжительность : 1 ч. 40 м.
Режим общего битрейта : Переменный
Общий поток : 7605 Кбит/сек
Видео
Идентификатор : 3551 (0xDDF)
Идентификатор меню : 1 (0x1)
Формат : AVC
Формат/Информация : Advanced Video Codec
Профиль формата : Main@L4.0
Параметр CABAC формата : Да
Параметр ReFrames формата : 3 кадра
Идентификатор кодека : 27
Продолжительность : 1 ч. 40 м.
Битрейт : 6582 Кбит/сек
Ширина : 1920 пикселей
Высота : 1080 пикселей
Соотношение сторон : 16:9
Частота кадров : 25,000 кадров/сек
Стандарт вещания : Component
Цветовое пространство : YUV
Субдискретизация насыщенности : 4:2:0
Битовая глубина : 8 бит
Тип развёртки : Чересстрочная
Порядок развёртки : Верхнее поле первое
Бит/(Пиксели*Кадры) : 0.127
Размер потока : 4,64 Гбайт (87%)
Основные цвета : BT.709
Характеристики трансфера : BT.709
Коэффициенты матрицы : BT.709
colour_range : Limited
Аудио #1
Идентификатор : 3552 (0xDE0)
Идентификатор меню : 1 (0x1)
Формат : MPEG Audio
Версия формата : Version 1
Профиль формата : Layer 2
Идентификатор кодека : 3
Продолжительность : 1 ч. 40 м.
Вид битрейта : Постоянный
Битрейт : 192 Кбит/сек
Каналы : 2 канала
Частота : 48,0 КГц
Метод сжатия : С потерями
Размер потока : 139 Мбайт (3%)
Язык : Russian
Аудио #2
Идентификатор : 3553 (0xDE1)
Идентификатор меню : 1 (0x1)
Формат : AC-3
Формат/Информация : Audio Coding 3
Расширение режима : CM (complete main)
Параметр Endianness формата : Big
Идентификатор кодека : 6
Продолжительность : 1 ч. 40 м.
Вид битрейта : Постоянный
Битрейт : 448 Кбит/сек
Каналы : 6 каналов
Расположение каналов : Front: L C R, Side: L R, LFE
Частота : 48,0 КГц
Битовая глубина : 16 бит
Метод сжатия : С потерями
Размер потока : 324 Мбайт (6%)
Язык : Russian

Скриншот с названием фильма

Скриншоты

[Профиль] [ЛС]
Показать сообщения:    

Текущее время: Сегодня 18:41

Часовой пояс: GMT



Вы не можете начинать темы
Вы не можете отвечать на сообщения
Вы не можете редактировать свои сообщения
Вы не можете удалять свои сообщения
Вы не можете голосовать в опросах
Вы не можете прикреплять файлы к сообщениям
Вы не можете скачивать файлы