Марафон / The Marafon (Александр Петров,Михаил Тумеля) [1988, CCCР, Рисованный мультфильм, WEBRip]

 
Автор Сообщение

TorrentFilm ®

Пол:

Стаж: 2 года

Сообщений: 7741



Награды: Нет

Торрент-статистика

Создавать темы 07-Фев-2016 00:08

[Цитировать]

Марафон / The Marathon
Страна: CCCР
Жанр: Рисованный мультфильм
Продолжительность: 00:03:45
Год выпуска: 1988
Русские субтитры: нет
Режиссёр: Александр Петров,Михаил Тумеля
Описание: Из всех подарков, полученных Микки Маусом на свое 60- летие, фильм который Вы сейчас увидите один из самых уникальных, он сделан студентами аниматорами из Советского Союза на студии «Беларусьфильм» и «Союзмультфильм». И был подарен Рою Диснею во время его визита в Москву в 1988году.
Cюжет:Ребёнок подходит к экрану, где видит своё отражение. Благодаря волшебной кисти отражение превращается в Микки Мауса. Ребёнок и мышонок начинают танцевать. Тем временем вверху экрана идут цифры отображающие количество лет существования Микки Мауса. Ребёнок всё это время растёт: становится подростком, потом юношей, затем взрослым человеком. Цифры доходят до 60. Микки Маус не изменился, он всё так же весел и хочет танцевать. Ребёнок же к этому времени уже старый человек, немного отдышавшись он садится в кресло. Теперь за мышонком начинает наблюдать другой малыш, уже из другого поколения.
Доп. информация:
"Союзмультфильм" "Беларусьфильм"
Cценарий: М. Тумеля
Оператор: М.Комов
Аниматоры:А.Дорохов,О.Козлов,А.Петров,М.Тумеля
Раздача группы:
Качество: WEBRip
Формат: AVI
Видео: 704x528 (1.33:1), 25 fps, XviD build 50 ~1037 kbps avg, 0.11 bit/pixel
Аудио: 44.100 kHz, MPEG Layer 3, 2 ch, ~192.00 kbps avg
Субтитры: нет

Подробные технические данные

Format : AVIFormat/Info : Audio Video InterleaveFile size : 33.4 MiBDuration : 3mn 45sOverall bit rate : 1 242 KbpsWriting application : MEncoder SVN-r30881(20100311-gcc4.3.3)Writing library : MPlayer
VideoID : 0Format : MPEG-4 VisualFormat profile : Advanced Simple@L5Format settings, BVOP : 2Format settings, QPel : NoFormat settings, GMC : No warppointsFormat settings, Matrix : Default (H.263)Codec ID : XVIDCodec ID/Hint : XviDDuration : 3mn 45sBit rate : 1 037 KbpsWidth : 704 pixelsHeight : 528 pixelsDisplay aspect ratio : 4:3Frame rate : 25.000 fpsColor space : YUVChroma subsampling : 4:2:0Bit depth : 8 bitsScan type : ProgressiveCompression mode : LossyBits/(Pixel*Frame) : 0.112Stream size : 27.9 MiB (84%)Writing library : XviD 1.2.1 (UTC 2008-12-04)
AudioID : 1Format : MPEG AudioFormat version : Version 1Format profile : Layer 3Mode : Joint stereoMode extension : MS StereoCodec ID : 55Codec ID/Hint : MP3Duration : 3mn 45sBit rate mode : ConstantBit rate : 192 KbpsChannel(s) : 2 channelsSampling rate : 44.1 KHzCompression mode : LossyDelay relative to video : 80msStream size : 5.17 MiB (15%)Alignment : Aligned on interleavesInterleave, duration : 26 ms (0.65 video frame)Interleave, preload duration : 522 msWriting library : LAME3.98

Скриншоты

[Профиль] [ЛС]
Показать сообщения:    

Текущее время: Сегодня 20:26

Часовой пояс: GMT



Вы не можете начинать темы
Вы не можете отвечать на сообщения
Вы не можете редактировать свои сообщения
Вы не можете удалять свои сообщения
Вы не можете голосовать в опросах
Вы не можете прикреплять файлы к сообщениям
Вы не можете скачивать файлы