Манхэттенская ночь / Manhattan Night (2016) BDRemux 1080p | L

 
Автор Сообщение

достали все ®

Пол:

Стаж: 1 год 8 месяцев

Сообщений: 6545



Награды: 12 (Подробнее)

Mega Seeder 3 (Количество: 1) Mega Releaser 1 (Количество: 1) Top Releaser 3 (Количество: 1)
Торрент-статистика

Создавать темы 25-Июл-2016 03:24

[Цитировать]

Информация о фильме
Название: Манхэттенская ночь
Оригинальное название: Manhattan Night
Год выхода: 2016
Жанр: триллер, драма, криминал, детектив
Режиссер: Брайан ДеКьюбелис
В ролях: Ивонн Страховски, Эдриан Броуди, Дженнифер Билз, Кэмпбелл Скотт, Стивен Беркофф, Линда Лавин, Кевин Брезнахан, Амели МакКендри, Томас Баир, Мэдисон Элизабет Лахарес
О фильме:
С просьбы соблазнительной незнакомки разобраться в нераскрытом убийстве ее мужа начинается неприятная история сексуальной одержимости и шантажа, которая может стоить журналисту Портеру Рену его работы, семьи и даже жизни.

Страна: США
Студия: DeCubellis Films, Untravelled Worlds, Fable House
Продолжительность: 01:54:26
Перевод: Любительский многоголосый (закадровый) | СПД
Файл
Кодек: x264
Качество: BDRemux 1080p
Видео: 1920x1080, 34.4 Mbit/s, 23.976 fps
Звук:
Аудио #01: 48 kHz, AC3, 5.1, 448 Kbps | Любительский многоголосый (закадровый) | СПД |
Аудио #02: 48 kHz, DTS-HD MA, 5.1, 3528 kbps | Оригинал |
Субтитры: Английские

MI

General
Unique ID : 175122359259386654814000680220978215000 (0x83BF56ED98C6D4BE9254C784807E7858)
Complete name : G:VideoНовая папка (2)Manhattan.Night.2016.MVO.BDREMUX.1080p.ExKinoRay.mkv
Format : Matroska
Format version : Version 4 / Version 2
File size : 30.5 GiB
Duration : 1h 53mn
Overall bit rate mode : Variable
Overall bit rate : 38.4 Mbps
Movie name : Manhattan.Night.2016.MVO.BDREMUX.1080p.ExKinoRay
Encoded date : UTC 2016-07-24 18:57:55
Writing application : mkvmerge v8.3.0 ('Over the Horizon') 64bit
Writing library : libebml v1.3.1 + libmatroska v1.4.2
Video
ID : 1
Format : AVC
Format/Info : Advanced Video Codec
Format profile : High@L4.1
Format settings, CABAC : Yes
Format settings, ReFrames : 4 frames
Codec ID : V_MPEG4/ISO/AVC
Duration : 1h 53mn
Bit rate mode : Variable
Bit rate : 34.4 Mbps
Maximum bit rate : 37.0 Mbps
Width : 1 920 pixels
Height : 1 080 pixels
Display aspect ratio : 16:9
Frame rate mode : Constant
Frame rate : 23.976 (24000/1001) fps
Color space : YUV
Chroma subsampling : 4:2:0
Bit depth : 8 bits
Scan type : Progressive
Bits/(Pixel*Frame) : 0.691
Stream size : 27.4 GiB (90%)
Language : English
Default : Yes
Forced : No
Audio #1
ID : 2
Format : AC-3
Format/Info : Audio Coding 3
Mode extension : CM (complete main)
Format settings, Endianness : Big
Codec ID : A_AC3
Duration : 1h 53mn
Bit rate mode : Constant
Bit rate : 448 Kbps
Channel(s) : 6 channels
Channel positions : Front: L C R, Side: L R, LFE
Sampling rate : 48.0 KHz
Frame rate : 31.250 fps (1536 spf)
Compression mode : Lossy
Stream size : 365 MiB (1%)
Title : MVO
Language : Russian
Default : Yes
Forced : No
Audio #2
ID : 3
Format : DTS
Format/Info : Digital Theater Systems
Format profile : MA / Core
Mode : 16
Format settings, Endianness : Big
Codec ID : A_DTS
Duration : 1h 53mn
Bit rate mode : Variable / Constant
Bit rate : 3 528 Kbps / 1 509 Kbps
Channel(s) : 6 channels
Channel positions : Front: L C R, Side: L R, LFE
Sampling rate : 48.0 KHz
Frame rate : 93.750 fps (512 spf)
Bit depth : 24 bits
Compression mode : Lossless / Lossy
Stream size : 2.81 GiB (9%)
Title : Original
Language : English
Default : No
Forced : No
Text #1
ID : 4
Format : UTF-8
Codec ID : S_TEXT/UTF8
Codec ID/Info : UTF-8 Plain Text
Duration : 1h 46mn
Bit rate : 56 bps
Count of elements : 1261
Stream size : 43.7 KiB (0%)
Title : Full
Language : English
Default : No
Forced : No
Text #2
ID : 5
Format : UTF-8
Codec ID : S_TEXT/UTF8
Codec ID/Info : UTF-8 Plain Text
Duration : 1h 52mn
Bit rate : 65 bps
Count of elements : 1522
Stream size : 54.1 KiB (0%)
Title : SDH
Language : English
Default : No
Forced : No
Menu
00:00:00.000 : en:00:00:00.000
00:09:27.150 : en:00:09:27.150
00:14:56.562 : en:00:14:56.562
00:25:48.714 : en:00:25:48.714
00:32:18.770 : en:00:32:18.770
00:39:42.672 : en:00:39:42.672
00:48:02.838 : en:00:48:02.838
00:59:05.208 : en:00:59:05.208
01:06:32.030 : en:01:06:32.030
01:11:48.471 : en:01:11:48.471
01:18:48.849 : en:01:18:48.849
01:25:02.389 : en:01:25:02.389
01:29:03.004 : en:01:29:03.004
01:31:47.836 : en:01:31:47.836
01:40:28.022 : en:01:40:28.022
01:46:12.408 : en:01:46:12.408

Скриншоты

Релиз от: Автор релиза:
[Профиль] [ЛС]
Показать сообщения:    

Текущее время: Сегодня 20:40

Часовой пояс: GMT



Вы не можете начинать темы
Вы не можете отвечать на сообщения
Вы не можете редактировать свои сообщения
Вы не можете удалять свои сообщения
Вы не можете голосовать в опросах
Вы не можете прикреплять файлы к сообщениям
Вы не можете скачивать файлы