Манхэттенская ночь / Manhattan Night (2016) WEB-DL 1080p | L

 
Автор Сообщение

достали все ®

Пол:

Стаж: 1 год 8 месяцев

Сообщений: 6554



Награды: 12 (Подробнее)

Mega Seeder 3 (Количество: 1) Mega Seeder 2 (Количество: 1) Top Releaser 3 (Количество: 1)
Торрент-статистика

Создавать темы 24-Май-2016 02:40

[Цитировать]

Информация о фильме
Название: Манхэттенская ночь
Оригинальное название: Manhattan Night
Год выпуска: 2016
Страна: США
Жанр: триллер, драма, криминал, детектив-Перевод: Любительский многоголосый (Parovoz Production)
Примечание: релиз без рекламы
Субтитры: английские (Full)
Продолжительность: 01:53:56-Режиссер: Брайан ДеКьюбелис
В ролях: Ивонн Страховски (Caroline Crowley), Эдриан Броуди (Porter Wren), Дженнифер Билз (Lisa Wren), Кэмпбелл Скотт (Simon Crowley), Стивен Беркофф (Hobbs), Линда Лавин (Norma), Кевин Брезнахан (Ron), Амели МакКендри (Not Caroline), Томас Баир (Tommy), Мэдисон Элизабет Лахарес (Sally), Чинаса Огбуагу (Haitian Woman), Мария-Кристина Оливерас (Prostitute)-Описание:
С просьбы соблазнительной незнакомки разобраться в нераскрытом убийстве ее мужа начинается неприятная история сексуальной одержимости и шантажа, которая может стоить журналисту Портеру Рену его работы, семьи и даже жизни.-Рейтинг:

MPAA: R - Лицам до 17 лет обязательно присутствие взрослого-Качество: WEB-DL 1080p
Формат: MKV
Видео: AVC, 1912x784 (2.40:1), 4095 kbps, 23,976 fps, 0,114 bpp
Аудио №1: русский / AC3 / 2.0 / 48 kHz / 192 kbps / 16 bit |Parovoz Production|
Аудио №2: английский / AC3 / 5.1 / 48 kHz / 384 kbps / 16 bit
Навигация по главам: есть
Семпл-

ОтчетМедиаИнфо

General
Unique ID : 191417249129119909930944009669719474962 (0x90019F06C440E90BA9DDCE419A91C312)
Complete name : E:Manhattan.Night.2016.1080p.WEB-DL.DD5.1.H264.mkv
Format : Matroska
Format version : Version 4 / Version 2
File size : 3.79 GiB
Duration : 1h 53mn
Overall bit rate : 4 767 Kbps
Movie name : Manhattan.Night.2016.1080p.WEB-DL.DD5.1.H264
Encoded date : UTC 2016-05-23 18:52:52
Writing application : mkvmerge v9.1.0 ('Little Earthquakes') 64bit
Writing library : libebml v1.3.3 + libmatroska v1.4.4
DURATION : 01:53:55.936000000
NUMBER_OF_FRAMES : 213623
NUMBER_OF_BYTES : 164062464
_STATISTICS_WRITING_APP : mkvmerge v9.1.0 ('Little Earthquakes') 64bit
_STATISTICS_WRITING_DATE_UTC : 2016-05-23 18:52:52
_STATISTICS_TAGS : BPS DURATION NUMBER_OF_FRAMES NUMBER_OF_BYTES
Video
ID : 1
Format : AVC
Format/Info : Advanced Video Codec
Format profile : High@L4.0
Format settings, CABAC : Yes
Format settings, ReFrames : 5 frames
Codec ID : V_MPEG4/ISO/AVC
Duration : 1h 53mn
Bit rate : 4 096 Kbps
Width : 1 912 pixels
Height : 784 pixels
Display aspect ratio : 2.40:1
Frame rate : 23.976 fps
Color space : YUV
Chroma subsampling : 4:2:0
Bit depth : 8 bits
Scan type : Progressive
Bits/(Pixel*Frame) : 0.114
Stream size : 3.26 GiB (86%)
Title : Manhattan.Night.2016.1080p.WEB-DL.DD5.1.H264-FGT
Language : English
Default : Yes
Forced : No
Color primaries : BT.709-5, BT.1361, IEC 61966-2-4, SMPTE RP177
Transfer characteristics : BT.709-5, BT.1361
Matrix coefficients : BT.709-5, BT.1361, IEC 61966-2-4 709, SMPTE RP177
Audio #1
ID : 2
Format : AC-3
Format/Info : Audio Coding 3
Mode extension : CM (complete main)
Codec ID : A_AC3
Duration : 1h 53mn
Bit rate mode : Constant
Bit rate : 192 Kbps
Channel(s) : 2 channels
Channel positions : Front: L R
Sampling rate : 48.0 KHz
Bit depth : 16 bits
Compression mode : Lossy
Stream size : 156 MiB (4%)
Title : Parovoz Production
Language : Russian
Default : Yes
Forced : No
Audio #2
ID : 3
Format : AC-3
Format/Info : Audio Coding 3
Mode extension : CM (complete main)
Codec ID : A_AC3
Duration : 1h 53mn
Bit rate mode : Constant
Bit rate : 384 Kbps
Channel(s) : 6 channels
Channel positions : Front: L C R, Side: L R, LFE
Sampling rate : 48.0 KHz
Bit depth : 16 bits
Compression mode : Lossy
Stream size : 313 MiB (8%)
Title : Original
Language : English
Default : No
Forced : No
Text
ID : 4
Format : UTF-8
Codec ID : S_TEXT/UTF8
Codec ID/Info : UTF-8 Plain Text
Title : Full
Language : English
Default : No
Forced : No
Menu
00:00:00.000 : en:1
00:04:55.000 : en:2
00:14:57.000 : en:3
00:25:50.000 : en:4
00:36:29.000 : en:5
00:48:03.000 : en:6
00:59:06.000 : en:7
01:09:13.000 : en:8
01:18:51.000 : en:9
01:28:53.000 : en:10
01:40:48.000 : en:11
01:47:48.000 : en:12

Скриншоты

[Профиль] [ЛС]
Показать сообщения:    

Текущее время: Сегодня 16:47

Часовой пояс: GMT



Вы не можете начинать темы
Вы не можете отвечать на сообщения
Вы не можете редактировать свои сообщения
Вы не можете удалять свои сообщения
Вы не можете голосовать в опросах
Вы не можете прикреплять файлы к сообщениям
Вы не можете скачивать файлы