Мамлюк / Mamluqi (Давид Рондели / Davit Rondeli) [1958, СССР, боевик, мелодрама, приключения, военный, DVD9] [4:3 PAL R5] RUSCICO, Коллекционное Издание, Dub Rus + Sub Rus Eng + DUB Eng Fre + Original Geo

 
Автор Сообщение

TorrentFilm ®

Пол:

Стаж: 1 год 11 месяцев

Сообщений: 7741



Награды: Нет

Торрент-статистика

Создавать темы 01-Янв-2016 00:21

[Цитировать]

Мамлюк / Mamluqi
4:3 PAL R5 RUSCICO, Коллекционное Издание
Страна: СССР
Студия: Киностудия "Грузия-фильм"
Жанр: боевик, мелодрама, приключения, военный
Год выпуска: 1958
Продолжительность: 01:34:28
Перевод: Профессиональный (дублированный)
Cубтитры: русские, английские
Оригинальная аудиодорожка: Грузинский
Режиссер: Давид Рондели / Davit Rondeli
В ролях: Дато Данелия, В. Джоджуа, М. Лондаридзе, Отар Коберидзе, Акакий Хорава, Лия Элиава, Георгий Шавгулидзе, Дудухана Церодзе, Михаил Вашадзе, Эдишер Магалашвили.
Описание: Грузия. Вторая половина XVIII века. Чужеземцы похищают детей, чтобы продать в рабство, сделать из них со временем верных и безжалостных воинов. Такая участь постигла Хвичу, который стал доблестным египетским мамлюком Махмудом. Однажды во время битвы воин услышал предсмертный крик на непонятном, но чем-то волнующем его языке…
Доп. информация: Диск Mamluqi_1958_DVD9 R5_(RUSCICO) найден в сети. (Который на постере)
Бонусы:
• Интервью с Отаром Коберидзе
• Фильмографии
• Фотоальбом
• Анонсы фильмов.
Меню: Анимированное, озвученное, на русском и английском.-- --GCDB--Mamluqi_1958_DVD9 R5_(RUSCICO)_Sample_.rar--Тип релиза: DVD9
Контейнер: DVD-Video
Видео: PAL 4:3 (720x576) VBR, ~ 7697.72 kbps avg
Аудио 1: Georgian, AC3, 1/0 (C) ch, 112 kbps, Delay 0 mSec
Аудио 2: Russian, AC3, 1/0 (C) ch, 96 kbps, Delay 0 mSec
Аудио 3: Russian, AC3, 3/2 (L,C,R,SL,SR)+LFE ch, 448 kbps, Delay 0 mSec
Аудио 4: English, AC3, 3/2 (L,C,R,SL,SR)+LFE ch, 448 kbps, Delay 0 mSec
Аудио 5: Francais, AC3, 3/2 (L,C,R,SL,SR)+LFE ch, 448 kbps, Delay 0 mSec
Формат субтитров: prerendered (DVD/IDX+SUB)

MediaInfo

General
Complete name : Mamluqi_1958_DVD9 R5_(RUSCICO)\VIDEO_TS\VTS_03_2.VOB
Format : MPEG-PS
File size : 1 024 MiB
Duration : 19mn 52s
Overall bit rate mode : Variable
Overall bit rate : 7 201 Kbps
Video
ID : 224 (0xE0)
Format : MPEG Video
Format version : Version 2
Format profile : Main@Main
Format settings, BVOP : Yes
Format settings, Matrix : Custom
Format settings, GOP : M=3, N=15
Duration : 19mn 52s
Bit rate mode : Variable
Bit rate : 5 505 Kbps
Maximum bit rate : 8 000 Kbps
Width : 720 pixels
Height : 576 pixels
Display aspect ratio : 4:3
Frame rate : 25.000 fps
Standard : PAL
Color space : YUV
Chroma subsampling : 4:2:0
Bit depth : 8 bits
Scan type : Interlaced
Scan order : Top Field First
Compression mode : Lossy
Bits/(Pixel*Frame) : 0.531
Time code of first frame : 00:17:32:04
Time code source : Group of pictures header
Stream size : 783 MiB (76%)
Audio #1
ID : 189 (0xBD)-128 (0x80)
Format : AC-3
Format/Info : Audio Coding 3
Mode extension : CM (complete main)
Format settings, Endianness : Big
Muxing mode : DVD-Video
Duration : 19mn 52s
Bit rate mode : Constant
Bit rate : 112 Kbps
Channel(s) : 1 channel
Channel positions : Front: C
Sampling rate : 48.0 KHz
Bit depth : 16 bits
Compression mode : Lossy
Delay relative to video : -592ms
Stream size : 15.9 MiB (2%)
Audio #2
ID : 189 (0xBD)-129 (0x81)
Format : AC-3
Format/Info : Audio Coding 3
Mode extension : CM (complete main)
Format settings, Endianness : Big
Muxing mode : DVD-Video
Duration : 19mn 52s
Bit rate mode : Constant
Bit rate : 96.0 Kbps
Channel(s) : 1 channel
Channel positions : Front: C
Sampling rate : 48.0 KHz
Bit depth : 16 bits
Compression mode : Lossy
Delay relative to video : -560ms
Stream size : 13.7 MiB (1%)
Audio #3
ID : 189 (0xBD)-130 (0x82)
Format : AC-3
Format/Info : Audio Coding 3
Mode extension : CM (complete main)
Format settings, Endianness : Big
Muxing mode : DVD-Video
Duration : 19mn 52s
Bit rate mode : Constant
Bit rate : 448 Kbps
Channel(s) : 6 channels
Channel positions : Front: L C R, Side: L R, LFE
Sampling rate : 48.0 KHz
Bit depth : 16 bits
Compression mode : Lossy
Delay relative to video : -688ms
Stream size : 63.7 MiB (6%)
Audio #4
ID : 189 (0xBD)-131 (0x83)
Format : AC-3
Format/Info : Audio Coding 3
Mode extension : CM (complete main)
Format settings, Endianness : Big
Muxing mode : DVD-Video
Duration : 19mn 52s
Bit rate mode : Constant
Bit rate : 448 Kbps
Channel(s) : 6 channels
Channel positions : Front: L C R, Side: L R, LFE
Sampling rate : 48.0 KHz
Bit depth : 16 bits
Compression mode : Lossy
Delay relative to video : -688ms
Stream size : 63.7 MiB (6%)
Audio #5
ID : 189 (0xBD)-132 (0x84)
Format : AC-3
Format/Info : Audio Coding 3
Mode extension : CM (complete main)
Format settings, Endianness : Big
Muxing mode : DVD-Video
Duration : 19mn 52s
Bit rate mode : Constant
Bit rate : 448 Kbps
Channel(s) : 6 channels
Channel positions : Front: L C R, Side: L R, LFE
Sampling rate : 48.0 KHz
Bit depth : 16 bits
Compression mode : Lossy
Delay relative to video : -688ms
Stream size : 63.7 MiB (6%)
Text #1
ID : 189 (0xBD)-32 (0x20)
Format : RLE
Format/Info : Run-length encoding
Muxing mode : DVD-Video
Duration : 19mn 47s
Delay relative to video : 3s 120ms
Text #2
ID : 189 (0xBD)-33 (0x21)
Format : RLE
Format/Info : Run-length encoding
Muxing mode : DVD-Video
Duration : 19mn 47s
Delay relative to video : 3s 120ms
Menu

DVD Info

Title: Mamluqi_1958_DVD9 R5_(RUSCICO)
Size: 5.99 Gb ( 6 278 482,00 KBytes ) - DVD-9
Enabled regions: 1, 2, 3, 4, 5, 6
VTS_01 :
Play Length: 00:00:24
Video: PAL 4:3 (720x576) VBR
VTS_02 :
Play Length: 00:00:21
Video: PAL 4:3 (720x576) VBR
Audio:
Not specified (Dolby AC3, 6 ch)
VTS_03 :
Play Length: 01:34:28
Video: PAL 4:3 (720x576) VBR
Audio:
Georgian, AC3, 1/0 (C) ch, 112 kbps, Delay 0 mSec
Russian, AC3, 1/0 (C) ch, 96 kbps, Delay 0 mSec
Russian, AC3, 3/2 (L,C,R,SL,SR)+LFE ch, 448 kbps, Delay 0 mSec
English, AC3, 3/2 (L,C,R,SL,SR)+LFE ch, 448 kbps, Delay 0 mSec
Francais, AC3, 3/2 (L,C,R,SL,SR)+LFE ch, 448 kbps, Delay 0 mSec
Subtitles:
Russian
English
VTS_04 :
Play Length: 00:01:46
Video: PAL 4:3 (720x576) VBR
Audio:
Russian (Dolby AC3, 2 ch)
Subtitles:
Russian
English
VTS_05 :
Play Length: 00:02:06
Video: PAL 4:3 (720x576) VBR
Audio:
Russian (Dolby AC3, 3 ch)
Subtitles:
Russian
English
VTS_06 :
Play Length: 00:01:41
Video: PAL 4:3 (720x576) VBR
Audio:
Russian (Dolby AC3, 1 ch)
Subtitles:
Russian
English
VTS_07 :
Play Length: 00:02:00
Video: PAL 4:3 (720x576) VBR
Audio:
Georgian (Dolby AC3, 2 ch)
VTS_08 :
Play Length: 00:08:58
Video: PAL 4:3 (720x576) VBR
Audio:
Russian (Dolby AC3, 2 ch)
Subtitles:
Russian
English
* Menus Information *
VIDEO_TS Menu
Video:
PAL 4:3 (720x576) VBR
English Language Unit :
Title Menu
VTS_01 Menu
Video:
PAL 4:3 (720x576) VBR
Audio:
Not specified (Dolby AC3, 2 ch)
English Language Unit :
Root Menu
VTS_02 Menu
Video:
PAL 4:3 (720x576) VBR
English Language Unit :
Root Menu
VTS_03 Menu
Video:
PAL 4:3 (720x576) VBR
English Language Unit :
Root Menu
VTS_04 Menu
Video:
PAL 4:3 (720x576) VBR
English Language Unit :
Root Menu
VTS_05 Menu
Video:
PAL 4:3 (720x576) VBR
English Language Unit :
Root Menu
VTS_06 Menu
Video:
PAL 4:3 (720x576) VBR
English Language Unit :
Root Menu
VTS_07 Menu
Video:
PAL 4:3 (720x576) VBR
English Language Unit :
Root Menu
VTS_08 Menu
Video:
PAL 4:3 (720x576) VBR
English Language Unit :
Root Menu

Скриншоты меню

--
--

-
-
-

Коврик и Блинчик


[Профиль] [ЛС]
Кто просматривает тему:

Показать сообщения:    

Текущее время: Сегодня 00:39

Часовой пояс: GMT



Вы не можете начинать темы
Вы не можете отвечать на сообщения
Вы не можете редактировать свои сообщения
Вы не можете удалять свои сообщения
Вы не можете голосовать в опросах
Вы не можете прикреплять файлы к сообщениям
Вы не можете скачивать файлы