Мамаша / Мамочка / Mom [S02х01-04] (2013) WEB-DL 720p

 
Автор Сообщение

Белочка ®

Пол:

Стаж: 5 лет 1 месяц

Сообщений: 2089



Награды: 1 (Подробнее)

Girls (Количество: 1)
Торрент-статистика

Создавать темы 20-Дек-2014 06:01

[Цитировать]

2 сезон-Мамочка / Mom Год выпуска: 2014
Страна: США
Жанр: комедия
Продолжительность: 4 x ~22 мин
Перевод: Любительский (Двухголосый закадровый) - ZM-SHOW
русские субтитры: нет
-
Режиссёр: Памела Фрайман / Pamela Fryman, Гари Хэлворсон / Gary Halvorson, Джефф Гринштейн / Jeff Greenstein


-
Перевод: Агата Клинцова
Роли озвучивали: Кирилл Лавров, Александра Ларионова
-
Качество: WEB-DL 720p
Формат: MKV
Видео кодек: AVC
Аудио кодек: AC3
Видео: 1280x718 (16:9) , 23.976 fps, ~4058 kbps avg, 0.178 bit/pixel
Аудио #1: [RUS] 48 kHz, AC3 Dolby Digital, 3/2 (L,C,R,l,r) + LFE ch, ~384 kbps
Аудио #2: [ENG] 48 kHz, AC3 Dolby Digital, 3/2 (L,C,R,l,r) + LFE ch, ~384 kbps
субтитры: английские

Скриншоты

Список серий

1. «Гепатит и лимонная цедра» (Hepatitis and Lemon Zest)
2. «Инжирный пудинг и похищение» (Figgy Pudding and the Rapture)
3. «Куриные наггетсы и тройное убийство» (Chicken Nuggets and Triple Homicide)
3. «Липовое резюме и рекомендуемая дозировка» (Forged Resumes and the Recommended Dosage)

MediaInfo

Общее
Уникальный идентификатор : 216148483702168258051668631994501022348 (0xA29CAF083F3FA8A685F6D7AAF3DDC28C)
Полное имя : D:ImMomMom.s02.WEB-DL 720pMom.s02.e01.Hepatitis and Lemon Zest.WEB-DL 720p.mkv
Формат : Matroska
Версия формата : Version 4 / Version 2
Размер файла : 754 Мбайт
Продолжительность : 21 м.
Общий поток : 4924 Кбит/сек
Дата кодирования : UTC 2014-12-06 09:14:59
Программа кодирования : mkvmerge v7.3.0 ('Nouages') 32bit built on Oct 22 2014 18:44:01
Библиотека кодирования : libebml v1.3.0 + libmatroska v1.4.1
DURATION : 00:21:25.152000000
NUMBER_OF_FRAMES : 40161
NUMBER_OF_BYTES : 61687296
_STATISTICS_WRITING_APP : mkvmerge v7.3.0 ('Nouages') 32bit built on Oct 22 2014 18:44:01
_STATISTICS_WRITING_DATE_UTC : 2014-12-06 09:14:59
_STATISTICS_TAGS : BPS DURATION NUMBER_OF_FRAMES NUMBER_OF_BYTES
Видео
Идентификатор : 1
Формат : AVC
Формат/Информация : Advanced Video Codec
Профиль формата : High@L3.1
Параметр CABAC формата : Нет
Параметр ReFrames формата : 2 кадра
Идентификатор кодека : V_MPEG4/ISO/AVC
Продолжительность : 21 м.
Битрейт : 4058 Кбит/сек
Ширина : 1280 пикселей
Высота : 718 пикселей
Соотношение сторон : 16:9
Режим частоты кадров : Постоянный
Частота кадров : 23,976 кадра/сек
Цветовое пространство : YUV
Субдискретизация насыщенности : 4:2:0
Битовая глубина : 8 бит
Тип развёртки : Прогрессивная
Бит/(Пиксели*Кадры) : 0.184
Размер потока : 622 Мбайт (82%)
Язык : English
Default : Да
Forced : Нет
Основные цвета : BT.709
Характеристики трансфера : BT.709
Коэффициенты матрицы : BT.709
Аудио #1
Идентификатор : 2
Формат : AC-3
Формат/Информация : Audio Coding 3
Расширение режима : CM (complete main)
Параметр Endianness формата : Big
Идентификатор кодека : A_AC3
Продолжительность : 21 м.
Вид битрейта : Постоянный
Битрейт : 384 Кбит/сек
Каналы : 6 каналов
Расположение каналов : Front: L C R, Side: L R, LFE
Частота : 48,0 КГц
Битовая глубина : 16 бит
Метод сжатия : С потерями
Размер потока : 58,8 Мбайт (8%)
Заголовок : MVO - ZM-SHOW
Язык : Russian
Default : Да
Forced : Нет
Аудио #2
Идентификатор : 3
Формат : AC-3
Формат/Информация : Audio Coding 3
Расширение режима : CM (complete main)
Параметр Endianness формата : Big
Идентификатор кодека : A_AC3
Продолжительность : 21 м.
Вид битрейта : Постоянный
Битрейт : 384 Кбит/сек
Каналы : 6 каналов
Расположение каналов : Front: L C R, Side: L R, LFE
Частота : 48,0 КГц
Битовая глубина : 16 бит
Метод сжатия : С потерями
Размер потока : 58,8 Мбайт (8%)
Заголовок : ENG
Язык : English
Default : Нет
Forced : Нет
Текст
Идентификатор : 4
Формат : UTF-8
Идентификатор кодека : S_TEXT/UTF8
Идентификатор кодека/Информация : UTF-8 Plain Text
Заголовок : Eng Sub
Язык : English
Default : Нет
Forced : Нет
[Профиль] [ЛС]
Показать сообщения:    

Текущее время: Сегодня 18:23

Часовой пояс: GMT



Вы не можете начинать темы
Вы не можете отвечать на сообщения
Вы не можете редактировать свои сообщения
Вы не можете удалять свои сообщения
Вы не можете голосовать в опросах
Вы не можете прикреплять файлы к сообщениям
Вы не можете скачивать файлы