Мальчишки из Скавабёле / Последний приют ковбоя / Skavabölen Pojat / Last Cowboy Standing (Заид Берг / Zaida Bergroth) [2009, Финляндия, Германия, Мелодрама, DVDRip] VO + Sub Русские (yasmus), английские + Original Fin

 
Автор Сообщение

TorrentFilm ®

Пол:

Стаж: 1 год 11 месяцев

Сообщений: 7741



Награды: Нет

Торрент-статистика

Создавать темы 31-Мар-2015 00:02

[Цитировать]

Мальчишки из Скавабёле / Последний приют ковбоя / Skavabölen Pojat / Last Cowboy Standing
Страна: Финляндия, Германия
Жанр: Мелодрама
Год выпуска: 2009
Продолжительность: 01:58:22
Перевод: Одноголосый закадровый
Cубтитры: русские, английские
Оригинальная аудиодорожка: финский
Режиссер: Заид Берг / Zaida Bergroth
В ролях: Томми Корпела / Tommi Korpela (Ossi), Элина Книхтиля / Elina Knihtilä (Anu), Lauri Tilkanen (Rupert), Iiro Panula (Evert), Мартти Суосало / Martti Suosalo (Father), Сулеви Пелтола / Sulevi Peltola (Magician Kinnunen), Леа Клемола / Leea Klemola (Mother), Jarkko Pajunen (Priest), Henri Huttunen (Keke), Hannu Kivioja (Grandfather), Ilmari Järvenpää (Rupert as a child), Onni Tommila (Evert as a child), Saara Kotkaniemi (Maria), Henriikka Salo (Anneli), Hannes Suominen (Young Kinnunen), Tuomas Turkka (Russian soldier), Vinski Pyykönen (Hannes as a child), Elias Eronen (Keke as a child)
Описание: Руперт возвращается домой после службы в армии. На пороге его одолевают воспоминания о тех годах, когда он был совсем ещё мальчишкой и счастливо жил здесь вместе с мамой, папой и младшим братом Эвертом. Разве мог кто-нибудь из них тогда предположить, чем потом всё это обернётся...
Доп. информация: Фильм взят отсюда http://torrentfilm.net/forum/viewtopic.php?t=3155734
Сэмпл: http://multi-up.com/1040341
Качество видео: DVDRip
Формат видео: AVI
Видео: MPEG-4 Visual at 1193 Кбит/сек: 608 x 256 (2.375) at 25.000 fps
Аудио 1: AC-3 at 224 Кбит/сек : 2 канала, 48,0 КГц(Русский)
Аудио 2: AC-3 at 448 Кбит/сек : 6 каналов, 48,0 КГц(Финский)
Формат субтитров: softsub (SRT)
Доп. информация о субтитрах: Русские внешние (yasmus), английские

MediaInfo

Общее
Полное имя : F:\С моей озвучкой\Мальчишки из Скавабёле\Skavabölen Pojat.avi
Формат : AVI
Формат/Информация : Audio Video Interleave
Размер файла : 1,55 Гбайт
Продолжительность : 1 ч. 58 м.
Общий поток : 1880 Кбит/сек
Программа кодирования : VirtualDubModRus 1.5.10.2 (build 2542/release)
Библиотека кодирования : VirtualDubMod build 2542/release
Видео
Идентификатор : 0
Формат : MPEG-4 Visual
Профиль формата : Advanced Simple@L5
Параметр BVOP формата : 2
Параметр QPel формата : Нет
Параметр GMC формата : Без точки перехода
Параметр матрицы формата : Default (H.263)
Идентификатор кодека : XVID
Идентификатор кодека/Подсказка : XviD
Продолжительность : 1 ч. 58 м.
Битрейт : 1193 Кбит/сек
Ширина : 608 пикселей
Высота : 256 пикселей
Соотношение сторон : 2,40:1
Частота кадров : 25,000 кадров/сек
Цветовое пространство : YUV
Субдискретизация насыщенности : 4:2:0
Битовая глубина : 8 бит
Тип развёртки : Прогрессивная
Метод сжатия : С потерями
Бит/(Пиксели*Кадры) : 0.307
Размер потока : 1010 Мбайт (63%)
Библиотека кодирования : XviD 1.2.1 (UTC 2008-12-04)
Аудио #1
Идентификатор : 1
Формат : AC-3
Формат/Информация : Audio Coding 3
Расширение режима : CM (complete main)
Параметр Endianness формата : Big
Идентификатор кодека : 2000
Продолжительность : 1 ч. 58 м.
Вид битрейта : Постоянный
Битрейт : 224 Кбит/сек
Каналы : 2 канала
Расположение каналов : Front: L R
Частота : 48,0 КГц
Битовая глубина : 16 бит
Метод сжатия : С потерями
Размер потока : 190 Мбайт (12%)
Выравнивание : Разделение по промежуткам
Продолжительность промежутка : 40 мс. (1,00 видеокадр)
Время предзагрузки промежутка : 500 мс.
Аудио #2
Идентификатор : 2
Формат : AC-3
Формат/Информация : Audio Coding 3
Расширение режима : CM (complete main)
Параметр Endianness формата : Big
Идентификатор кодека : 2000
Продолжительность : 1 ч. 58 м.
Вид битрейта : Постоянный
Битрейт : 448 Кбит/сек
Каналы : 6 каналов
Расположение каналов : Front: L C R, Side: L R, LFE
Частота : 48,0 КГц
Битовая глубина : 16 бит
Метод сжатия : С потерями
Размер потока : 379 Мбайт (24%)
Выравнивание : Разделение по промежуткам
Продолжительность промежутка : 40 мс. (1,00 видеокадр)
Время предзагрузки промежутка : 500 мс.

Скриншоты

[Профиль] [ЛС]

Создавать темы 06-Авг-2015 22:40 (спустя 4 месяца 6 дней)

Топик был перенесен из форума Фильмы до 2014 года в форум Фильмы до 2012 года
sergej644
 

Создавать темы 12-Июн-2016 08:49 (спустя 1 год 2 месяца)

Топик был перенесен из форума Фильмы 2011 года в форум Фильмы 2009 года
Russian Mafia
 
Показать сообщения:    

Текущее время: Сегодня 20:05

Часовой пояс: GMT



Вы не можете начинать темы
Вы не можете отвечать на сообщения
Вы не можете редактировать свои сообщения
Вы не можете удалять свои сообщения
Вы не можете голосовать в опросах
Вы не можете прикреплять файлы к сообщениям
Вы не можете скачивать файлы