Мальчишки из календаря / Мальчики из календаря / 12 Men of Christmas (Арлин Сэнфорд / Arlene Sanford) [2009, США, комедия, DVDRip] MVO (Первый канал) + MVO (DVD)

 
Автор Сообщение

TorrentFilm ®

Пол:

Стаж: 2 года

Сообщений: 7741



Награды: Нет

Торрент-статистика

Создавать темы 07-Окт-2015 00:10

[Цитировать]

Мальчишки из календаря
Мальчики из календаря
12 Men of Christmas

Страна: США
Жанр: комедия
Год выпуска: 2009
Продолжительность: 01:27:31-Перевод 1: Профессиональный (многоголосый закадровый)
Первый канал

Перевод 2: Профессиональный (многоголосый закадровый)
DVD

Cубтитры: нет
Оригинальная аудиодорожка: нет-Режиссер: Арлин Сэнфорд / Arlene Sanford
В ролях: Кристин Ченоуэт, Джош Хопкинс, Анна Кламски, Эрин Дилли, Стивен Хусар, Хизер Хэнсон, Джефферсон Браун, Крэйг Элдридж, Чантал Перрон, Аарон Абрамс, Фрэнк Чисарин-
Описание: Иджей Бакстер — современная женщина, добившаяся большого успеха в жизни. У неё отличная работа, шикарная квартира в центре Нью-Йорка и прекрасный жених. Однажды, накануне Рождества, жизнь Иджей рушится, словно карточный домик. Она застает своего жениха с начальницей, и разом теряет и любовь, и работу. В расстроенных чувствах героиня едет в штат Монтана, где устраивается на первую предложенную ей работу. Но то, что поначалу выглядело, как неудача, в конце концов обернётся для неё настоящим счастливым случаем-Доп. информация:
О переводе Первого канала: Перевод на трекере появляется впервые
Качество: цифровой эфир (Первый канал)
Запись и синхронизация: mister55555-Сэмпл: минута50сек-Качество видео: DVDRip (спасибо Светлячок с рутора)
Формат видео: AVI
Видео: XVID, 720х400, 16:9, 23,976 кадра/сек, 1835 Кбит/сек
Аудио 1: AC-3, 48,0 КГц, 192 Кбит/сек, 2 канала (многоголосый Первый канал)
Аудио 2: AC-3, 48,0 КГц, 192 Кбит/сек, 2 канала (многоголосый DVD)

MediaInfo

Общее
Полное имя : Мальчишки из календаря.2009.DVDRip.1канал.avi
Формат : AVI
Формат/Информация : Audio Video Interleave
Размер файла : 1,36 Гбайт
Продолжительность : 1 ч. 27 м.
Общий поток : 2233 Кбит/сек
Программа кодирования : VirtualDubModRus 1.5.10.2 (build 2542/release)
Библиотека кодирования : VirtualDubMod build 2542/release
Видео
Идентификатор : 0
Формат : MPEG-4 Visual
Профиль формата : Advanced Simple@L5
Параметр BVOP формата : 1
Параметр QPel формата : Нет
Параметр GMC формата : Без точки перехода
Параметр матрицы формата : Default (MPEG)
Идентификатор кодека : XVID
Идентификатор кодека/Подсказка : XviD
Продолжительность : 1 ч. 27 м.
Битрейт : 1835 Кбит/сек
Ширина : 720 пикселей
Высота : 400 пикселей
Соотношение сторон : 16:9
Частота кадров : 23,976 кадра/сек
Цветовое пространство : YUV
Субдискретизация насыщенности : 4:2:0
Битовая глубина : 8 бит
Тип развёртки : Прогрессивная
Метод сжатия : С потерями
Бит/(Пиксели*Кадры) : 0.266
Размер потока : 1,12 Гбайт (82%)
Библиотека кодирования : XviD 1.2.1 (UTC 2008-12-04)
Аудио #1
Идентификатор : 1
Формат : AC-3
Формат/Информация : Audio Coding 3
Расширение режима : CM (complete main)
Параметр Endianness формата : Big
Идентификатор кодека : 2000
Продолжительность : 1 ч. 27 м.
Вид битрейта : Постоянный
Битрейт : 192 Кбит/сек
Каналы : 2 канала
Расположение каналов : Front: L R
Частота : 48,0 КГц
Метод сжатия : С потерями
Размер потока : 120 Мбайт (9%)
Выравнивание : Разделение по промежуткам
Продолжительность промежутка : 42 мс. (1,00 видеокадр)
Время предзагрузки промежутка : 500 мс.
Заголовок : многоголосый Первый канал
Аудио #2
Идентификатор : 2
Формат : AC-3
Формат/Информация : Audio Coding 3
Расширение режима : CM (complete main)
Параметр Endianness формата : Big
Идентификатор кодека : 2000
Продолжительность : 1 ч. 27 м.
Вид битрейта : Постоянный
Битрейт : 192 Кбит/сек
Каналы : 2 канала
Расположение каналов : Front: L R
Частота : 48,0 КГц
Метод сжатия : С потерями
Размер потока : 120 Мбайт (9%)
Выравнивание : Соединение по промежуткам
Продолжительность промежутка : 42 мс. (1,00 видеокадр)
Время предзагрузки промежутка : 512 мс.
Заголовок : многоголосый DVD

Скриншот c названием фильма

[Профиль] [ЛС]

Создавать темы 12-Июн-2016 08:13 (спустя 8 месяцев 5 дней)

Топик был перенесен из форума Фильмы 2011 года в форум Фильмы 2009 года
Russian Mafia
 
Показать сообщения:    

Текущее время: Сегодня 22:10

Часовой пояс: GMT



Вы не можете начинать темы
Вы не можете отвечать на сообщения
Вы не можете редактировать свои сообщения
Вы не можете удалять свои сообщения
Вы не можете голосовать в опросах
Вы не можете прикреплять файлы к сообщениям
Вы не можете скачивать файлы