Мальчик на скачущей лошадке / The Boy on the Galloping Horse (Адам Гузински / Adam Guzinski) [2006, Польша, Драма, DVDRip-AVC] VO + Sub Rus + Original Pol

 
Автор Сообщение

TorrentFilm ®

Пол:

Стаж: 2 года

Сообщений: 7741



Награды: Нет

Торрент-статистика

Создавать темы 19-Дек-2014 02:00

[Цитировать]

Мальчик на скачущей лошадке / The Boy on the Galloping Horse
Страна: Польша
Жанр: Драма
Год выпуска: 2006
Продолжительность: 01.12.00
Перевод: Одноголосый закадровый
Cубтитры: русские
Оригинальная аудиодорожка: польский
Режиссер: Адам Гузински / Adam Guzinski
В ролях: Piotr Bajor - Jerzy, Aleksandra Justa - Maria, Krzysztof Lis - Janek, Krzysztof Radkowski - Tomasz, Bartlomiej Bobrowski - Young Writer, Danuta Borsuk, Alicja Gasior - Girl in the Shop, Malgorzata Hajewska - Shopkeeper, Marta Kalmus, Marek Kasprzyk - Receptionist, Wladyslaw Kowalski - Ward Manager, Tadeusz Madeja - Old Man, Stanislaw Penksyk - Bus Driver, Anna Sarna, Teresa Sawicka - Nurse, Anna Seniuk - Nurse.
Описание: Фильм рассказывает историю Ежи, писателя, чье творчество в кризисе. Его жена и их семилетний сын Яцек живут далеко от города. Творческий кризис Ежи и связанные с ними финансовые проблемы влияют на супружескую пару, они отдаляются друг от друга и их угасают. Однажды они узнают, что их сын болен и придется ехать в город на операцию. Для мальчика это только долгожданное путешествие, чтобы посетить магазин игрушечных автомобилей, для родителей это время тревоги и разделения, что заставляет их заново взглянуть на свои отношения.
Сэмпл: http://multi-up.com/1013400
Качество видео: DVDRip-AVC
Формат видео: MKV
Видео: AVC at 932 Кбит/сек : 720 x 574 (1.338) at 25.000 fps
Аудио 1: MPEG Audio at 128 Кбит/сек : 2 канала, 48,0 КГц Language : ru
Аудио 2: MPEG Audio at 128 Кбит/сек : 2 канала, 48,0 КГц Language : pl
Формат субтитров: softsub (SRT)
Доп. информация о субтитрах: Русские внешние (Thoma_)

MediaInfo

Общее
Уникальный идентификатор : 182356412294447916671234663496820067690 (0x893091479B75E504B942073EE4520D6A)
Полное имя : F:\С моей озвучкой\Мальчик на скачущей лошадке\The Boy on the Galloping Horse.mkv
Формат : Matroska
Версия формата : Version 4 / Version 2
Размер файла : 631 Мбайт
Продолжительность : 1 ч. 12 м.
Общий поток : 1212 Кбит/сек
Дата кодирования : UTC 2014-11-15 19:46:40
Программа кодирования : mkvmerge v6.1.0 ('Old Devil') built on Mar 4 2013 09:10:42
Библиотека кодирования : libebml v1.3.0 + libmatroska v1.4.0
Видео
Идентификатор : 1
Формат : AVC
Формат/Информация : Advanced Video Codec
Профиль формата : Main@L3.0
Параметр CABAC формата : Да
Параметр ReFrames формата : 4 кадра
Идентификатор кодека : V_MPEG4/ISO/AVC
Продолжительность : 1 ч. 12 м.
Битрейт : 932 Кбит/сек
Ширина : 720 пикселей
Высота : 574 пикселя
Соотношение сторон : 4:3
Режим частоты кадров : Постоянный
Частота кадров : 25,000 кадров/сек
Цветовое пространство : YUV
Субдискретизация насыщенности : 4:2:0
Битовая глубина : 8 бит
Тип развёртки : Прогрессивная
Бит/(Пиксели*Кадры) : 0.090
Размер потока : 485 Мбайт (77%)
Библиотека кодирования : x264 core 120
Настройки программы : cabac=1 / ref=1 / deblock=1:0:0 / analyse=0x1:0x111 / me=hex / subme=2 / psy=1 / psy_rd=1.00:0.00 / mixed_ref=0 / me_range=16 / chroma_me=1 / trellis=0 / 8x8dct=0 / cqm=0 / deadzone=21,11 / fast_pskip=1 / chroma_qp_offset=0 / threads=3 / sliced_threads=0 / nr=0 / decimate=1 / interlaced=0 / bluray_compat=0 / constrained_intra=0 / bframes=3 / b_pyramid=2 / b_adapt=1 / b_bias=0 / direct=1 / weightb=1 / open_gop=0 / weightp=1 / keyint=250 / keyint_min=25 / scenecut=40 / intra_refresh=0 / rc_lookahead=10 / rc=crf / mbtree=1 / crf=20.0 / qcomp=0.60 / qpmin=3 / qpmax=69 / qpstep=4 / ip_ratio=1.40 / aq=1:1.00
Default : Да
Forced : Нет
Основные цвета : BT.601 NTSC
Характеристики трансфера : BT.709
Коэффициенты матрицы : BT.601
Аудио #1
Идентификатор : 2
Формат : MPEG Audio
Версия формата : Version 1
Профиль формата : Layer 3
Режим : Joint stereo
Расширение режима : MS Stereo
Идентификатор кодека : A_MPEG/L3
Идентификатор кодека/Подсказка : MP3
Продолжительность : 1 ч. 12 м.
Вид битрейта : Постоянный
Битрейт : 128 Кбит/сек
Каналы : 2 канала
Частота : 48,0 КГц
Метод сжатия : С потерями
Размер потока : 66,7 Мбайт (11%)
Библиотека кодирования : LAME3.96
Язык : Russian
Default : Да
Forced : Нет
Аудио #2
Идентификатор : 3
Формат : MPEG Audio
Версия формата : Version 1
Профиль формата : Layer 3
Режим : Joint stereo
Расширение режима : MS Stereo
Идентификатор кодека : A_MPEG/L3
Идентификатор кодека/Подсказка : MP3
Продолжительность : 1 ч. 12 м.
Вид битрейта : Постоянный
Битрейт : 128 Кбит/сек
Каналы : 2 канала
Частота : 48,0 КГц
Метод сжатия : С потерями
Размер потока : 66,7 Мбайт (11%)
Язык : Polish
Default : Нет
Forced : Нет

Скриншоты

[Профиль] [ЛС]

Создавать темы 06-Авг-2015 22:54 (спустя 7 месяцев 18 дней)

Топик был перенесен из форума Фильмы до 2014 года в форум Фильмы до 2012 года
sergej644
 
Показать сообщения:    

Текущее время: Сегодня 12:33

Часовой пояс: GMT



Вы не можете начинать темы
Вы не можете отвечать на сообщения
Вы не можете редактировать свои сообщения
Вы не можете удалять свои сообщения
Вы не можете голосовать в опросах
Вы не можете прикреплять файлы к сообщениям
Вы не можете скачивать файлы