Мальчик, который кричал: Волк! (Константин Бронзит) [2008, Россия, мультфильм, экранизация, WEBRip]

 
Автор Сообщение

TorrentFilm ®

Пол:

Стаж: 2 года

Сообщений: 7741



Награды: Нет

Торрент-статистика

Создавать темы 09-Янв-2016 00:12

[Цитировать]

Мальчик, который кричал: Волк!
Страна: Россия
Жанр: мультфильм, экранизация
Продолжительность: 00:08:04
Год выпуска: 2008
Режиссёр: Константин Бронзит
Описание: По сказке Б. Хеннеси и иллюстрациям Б. Куликова.
Молодому пастушку скучно целый день пасти овец, и он решает развлечься, поднимая ложную тревогу о нападении волка...
Качество: WEBRip
Формат: AVI
Видео: 987 kbps, 624х496 (5:4), 25.000 fps, MPEG-4 Visual (XviD)
Аудио: 128 kbps, 44.1 kHz, 2 channels, MPEG Audio (MP3)
Субтитры: отсутствуют

Подробные технические данные

GeneralComplete name : Мальчик, который кричал Волк (2008).aviFormat : AVIFormat/Info : Audio Video InterleaveFile size : 65.0 MiBDuration : 8mn 4sOverall bit rate : 1 125 KbpsWriting library : VirtualDub build 35491/release
VideoID : 0Format : MPEG-4 VisualFormat profile : Advanced Simple@L3Format settings, BVOP : 2Format settings, QPel : NoFormat settings, GMC : No warppointsFormat settings, Matrix : Default (H.263)Codec ID : XVIDCodec ID/Hint : XviDDuration : 8mn 4sBit rate : 987 KbpsWidth : 624 pixelsHeight : 496 pixelsDisplay aspect ratio : 5:4Frame rate : 25.000 fpsColor space : YUVChroma subsampling : 4:2:0Bit depth : 8 bitsScan type : ProgressiveCompression mode : LossyBits/(Pixel*Frame) : 0.128Stream size : 57.0 MiB (88%)Writing library : XviD 64
AudioID : 1Format : MPEG AudioFormat version : Version 1Format profile : Layer 3Mode : Joint stereoMode extension : MS StereoCodec ID : 55Codec ID/Hint : MP3Duration : 8mn 4sBit rate mode : ConstantBit rate : 128 KbpsChannel(s) : 2 channelsSampling rate : 44.1 KHzCompression mode : LossyStream size : 7.38 MiB (11%)Alignment : Split accross interleavesInterleave, duration : 40 ms (1.00 video frame)Interleave, preload duration : 501 ms

Скриншоты

Другие мультфильмы цикла "Современные сказки Мира"

Правдивая история о трёх поросятах (2008) http://torrentfilm.net/forum/viewtopic.php?t=1171895
Списки Уоллиса (2008) http://torrentfilm.net/forum/viewtopic.php?t=4297768
Красные шапочки (2009) http://torrentfilm.net/forum/viewtopic.php?t=5142783
Время травмы (2011) http://torrentfilm.net/forum/viewtopic.php?t=5143335
Путешествие Марко Поло (2013) http://torrentfilm.net/forum/viewtopic.php?t=5143933
[Профиль] [ЛС]
Показать сообщения:    

Текущее время: Сегодня 22:40

Часовой пояс: GMT



Вы не можете начинать темы
Вы не можете отвечать на сообщения
Вы не можете редактировать свои сообщения
Вы не можете удалять свои сообщения
Вы не можете голосовать в опросах
Вы не можете прикреплять файлы к сообщениям
Вы не можете скачивать файлы