Мальчик в девочке / It\'s a Boy Girl Thing (Ник Харран / Nick Hurran) [2006, Канада, Великобритания, мелодрама, комедия, DVDRip-AVC] [Open Matte] Dub + Eng + Sub (Rus, Eng)

 
Автор Сообщение

TorrentFilm ®

Пол:

Стаж: 2 года

Сообщений: 7741



Награды: Нет

Торрент-статистика

Создавать темы 24-Фев-2016 00:08

[Цитировать]

Мальчик в девочкеIt's a Boy Girl Thing- Страна: Канада, Великобритания
Жанр: мелодрама, комедия
Год выпуска: 2006
Продолжительность: 01:34:38-Перевод: Профессиональный (полное дублирование)
Оригинальная дорога: английский
Субтитры: русские, английские
Режиссер: Ник Харран / Nick Hurran
В ролях: Самира Армстронг (Nell Bedworth), Кевин Зегерс (Woody Deane), Шерри Миллер (Katherine Bedworth), Роберт Джой (Ted Bedworth), Шэрон Осборн (Della Deane), Мори Чайкин (Stan Deane), Мфо Коахо (Horse), Дэн Уарри-Смит (Team Guy #1), Балаж Коош (Glixen), Эмили Хэмпшир (Chanel), Брук Д’Орсей (Breanna), Кэтрин Хаггис (Miss Bidermeyer)-Описание: Романтическая комедия, повествующая о двух соседях, девушке и парне, которые являются абсолютными противоположностями по жизни. Кроме того, они являются заклятыми врагами. Однако все меняется, когда однажды утром они обмениваются телами. Их реакция достаточно неожиданна, поначалу они пытаются нанести вред репутации своему новому образу, но наступает момент, когда заключив сделку между собой, они достигают небывалого успеха.-
MPAA: PG-13 - Детям до 13 лет просмотр не желателен-Качество: DVDRip-AVC (HANDJOB)
Контейнер: MKV
Видео: AVC, 720x480@853x480 (16:9), 1373 kbps, 23,976 fps, 0,166 bpp
Аудио №1: русский / AC3 / 5.1 / 48 kHz / 384 kbps / 16 bit
Аудио №2: английский / AC3 / 5.1 / 48 kHz / 384 kbps / 16 bit
Навигация по главам: есть-СЭМПЛ - https://yadi.sk/i/vtNAC1WTpJbYD-

Сравнение[url=http://torrentfilm.net/forum/viewtopic.php?t=3463604]http://torrentfilm.net/forum/viewtopic.php?t=3463604[/url] [url=http://screenshotcomparison.com/comparison/162855/picture:0]http://screenshotcomparison.com/comparison/162855/pic

MediaInfo

General
Unique ID : 233123475142807099504504288816128656442 (0xAF61F2BA121DB287A4A4951A414D043A)
Complete name : E:\Movies\It's.a.Boy.Girl.Thing.2006.OM.DVDRip-AVC.Dub.Eng.Subs.mkv
Format : Matroska
Format version : Version 4 / Version 2
File size : 1.44 GiB
Duration : 1h 34mn
Overall bit rate : 2 186 Kbps
Movie name : It's a Boy Girl Thing 2006 Open Matte
Encoded date : UTC 2016-02-22 14:51:48
Writing application : mkvmerge v7.9.0 ('Birds') 64bit
Writing library : libebml v1.3.1 + libmatroska v1.4.2
_STATISTICS_WRITING_APP : mkvmerge v7.9.0 ('Birds') 64bit
_STATISTICS_WRITING_DATE_UTC : 2016-02-22 14:51:48
_STATISTICS_TAGS : BPS DURATION NUMBER_OF_FRAMES NUMBER_OF_BYTES
DURATION : 01:28:52.863000000
NUMBER_OF_FRAMES : 1045
NUMBER_OF_BYTES : 38090
Video
ID : 1
Format : AVC
Format/Info : Advanced Video Codec
Format profile : High@L3.1
Format settings, CABAC : Yes
Format settings, ReFrames : 11 frames
Codec ID : V_MPEG4/ISO/AVC
Duration : 1h 34mn
Bit rate : 1 374 Kbps
Width : 720 pixels
Height : 480 pixels
Display aspect ratio : 16:9
Frame rate mode : Constant
Frame rate : 23.976 fps
Color space : YUV
Chroma subsampling : 4:2:0
Bit depth : 8 bits
Scan type : Progressive
Bits/(Pixel*Frame) : 0.166
Stream size : 930 MiB (63%)
Writing library : x264 core 138 r2358 9e941d1
Encoding settings : cabac=1 / ref=11 / deblock=1:-3:-3 / analyse=0x3:0x133 / me=umh / subme=10 / psy=1 / psy_rd=1.00:0.00 / mixed_ref=1 / me_range=32 / chroma_me=1 / trellis=2 / 8x8dct=1 / cqm=0 / deadzone=21,11 / fast_pskip=0 / chroma_qp_offset=-2 / threads=6 / lookahead_threads=1 / sliced_threads=0 / nr=0 / decimate=1 / interlaced=0 / bluray_compat=0 / constrained_intra=0 / bframes=9 / b_pyramid=2 / b_adapt=2 / b_bias=0 / direct=3 / weightb=1 / open_gop=0 / weightp=2 / keyint=240 / keyint_min=24 / scenecut=40 / intra_refresh=0 / rc_lookahead=120 / rc=crf / mbtree=1 / crf=18.1 / qcomp=0.60 / qpmin=0 / qpmax=69 / qpstep=4 / ip_ratio=1.40 / aq=1:1.00
Language : English
Default : Yes
Forced : No
Color range : Limited
Color primaries : BT.601 NTSC
Transfer characteristics : BT.709
Matrix coefficients : BT.601
Audio #1
ID : 2
Format : AC-3
Format/Info : Audio Coding 3
Mode extension : CM (complete main)
Format settings, Endianness : Big
Codec ID : A_AC3
Duration : 1h 34mn
Bit rate mode : Constant
Bit rate : 384 Kbps
Channel(s) : 6 channels
Channel positions : Front: L C R, Side: L R, LFE
Sampling rate : 48.0 KHz
Compression mode : Lossy
Stream size : 260 MiB (18%)
Title : Дубляж
Language : Russian
Default : Yes
Forced : No
Audio #2
ID : 3
Format : AC-3
Format/Info : Audio Coding 3
Mode extension : CM (complete main)
Format settings, Endianness : Big
Codec ID : A_AC3
Duration : 1h 34mn
Bit rate mode : Constant
Bit rate : 384 Kbps
Channel(s) : 6 channels
Channel positions : Front: L C R, Side: L R, LFE
Sampling rate : 48.0 KHz
Compression mode : Lossy
Stream size : 260 MiB (18%)
Title : Оригинал
Language : English
Default : No
Forced : No
Text #1
ID : 4
Format : UTF-8
Codec ID : S_TEXT/UTF8
Codec ID/Info : UTF-8 Plain Text
Language : Russian
Default : No
Forced : No
Text #2
ID : 5
Format : UTF-8
Codec ID : S_TEXT/UTF8
Codec ID/Info : UTF-8 Plain Text
Language : English
Default : No
Forced : No
Menu
00:00:00.000 : en:Chapter 1
00:03:01.514 : en:Chapter 2
00:09:51.674 : en:Chapter 3
00:13:50.663 : en:Chapter 4
00:19:54.359 : en:Chapter 5
00:26:53.820 : en:Chapter 6
00:31:13.204 : en:Chapter 7
00:37:51.769 : en:Chapter 8
00:42:30.589 : en:Chapter 9
00:45:59.006 : en:Chapter 10
00:51:09.357 : en:Chapter 11
00:57:18.852 : en:Chapter 12
01:06:42.081 : en:Chapter 13
01:14:08.485 : en:Chapter 14
01:22:41.289 : en:Chapter 15
01:29:37.455 : en:Chapter 16
[Профиль] [ЛС]
Показать сообщения:    

Текущее время: Сегодня 00:36

Часовой пояс: GMT



Вы не можете начинать темы
Вы не можете отвечать на сообщения
Вы не можете редактировать свои сообщения
Вы не можете удалять свои сообщения
Вы не можете голосовать в опросах
Вы не можете прикреплять файлы к сообщениям
Вы не можете скачивать файлы