Мальчик в девочке / It\'s a Boy Girl Thing (Ник Харран / Nick Hurran) [2006, Канада, Великобритания, мелодрама, комедия, SATRip] [Full Screen] Dub

 
Автор Сообщение

TorrentFilm ®

Пол:

Стаж: 2 года

Сообщений: 7741



Награды: Нет

Торрент-статистика

Создавать темы 22-Фев-2016 00:08

[Цитировать]

Мальчик в девочке / It's a Boy Girl Thing / Full Screen
Страна: Канада, Великобритания
Жанр: мелодрама, комедия
Год выпуска: 2006
Продолжительность: 01:25:55
Перевод: Профессиональный (дублированный)
Cубтитры: нет
Оригинальная аудиодорожка: нет
Режиссер: Ник Харран / Nick Hurran
В ролях: Сэмэр Армстронг, Кевин Зегерс, Шерри Миллер, Роберт Джой, Шарон Осборн, Мори Чайкин, Мфо Коахо, Эмили Хэмпшир, Брук Д’Орсей, Дженелл Уильямс
Описание: Романтическая комедия, повествующая о двух соседях, девушке и парне, которые являются абсолютными противоположностями по жизни. Кроме того, они являются заклятыми врагами. Однако все меняется, когда однажды утром они обмениваются телами. Их реакция достаточно неожиданна, поначалу они пытаются нанести вред репутации своему новому образу, но наступает момент, когда заключив сделку между собой, они достигают небывалого успеха.
Доп. информация: Наполнение кадра DVB отличается от DVD http://screenshotcomparison.com/comparison/162786
Сэмпл: http://multi-up.com/1089984
Качество видео: SATRip
Формат видео: AVI
Видео: MPEG4, XviD, 704x528 (4:3), 25.000 fps, 2 080 Kbps (0.224 bit/pixel)
Аудио: AC-3, 48.0 KHz, 2 ch, 192 Kbps, CBR

MediaInfo

Общее
Полное имя : N:\Мальчик в девочке.avi
Формат : AVI
Формат/Информация : Audio Video Interleave
Размер файла : 1,37 Гбайт
Продолжительность : 1 ч. 25 м.
Общий поток : 2282 Кбит/сек
Название фильма : Мальчик в девочке / It's a Boy Girl Thing (2006)
Программа кодирования : VirtualDubMod 1.5.10.2 (build 2540/release)
Библиотека кодирования : VirtualDubMod build 2540/release
Авторское право : miha2154
Видео
Идентификатор : 0
Формат : MPEG-4 Visual
Профиль формата : Advanced Simple@L5
Параметр BVOP формата : 1
Параметр QPel формата : Нет
Параметр GMC формата : Без точки перехода
Параметр матрицы формата : Выборочная
Идентификатор кодека : XVID
Идентификатор кодека/Подсказка : XviD
Продолжительность : 1 ч. 25 м.
Битрейт : 2080 Кбит/сек
Ширина : 704 пикселя
Высота : 528 пикселей
Соотношение сторон : 4:3
Частота кадров : 25,000 кадров/сек
Цветовое пространство : YUV
Субдискретизация насыщенности : 4:2:0
Битовая глубина : 8 бит
Тип развёртки : Прогрессивная
Метод сжатия : С потерями
Бит/(Пиксели*Кадры) : 0.224
Размер потока : 1,25 Гбайт (91%)
Библиотека кодирования : XviD 65
Аудио
Идентификатор : 1
Формат : AC-3
Формат/Информация : Audio Coding 3
Расширение режима : CM (complete main)
Параметр Endianness формата : Big
Идентификатор кодека : 2000
Продолжительность : 1 ч. 25 м.
Вид битрейта : Постоянный
Битрейт : 192 Кбит/сек
Каналы : 2 канала
Расположение каналов : Front: L R
Частота : 48,0 КГц
Частота кадров : 31,250 кадров/сек (1536 spf)
Метод сжатия : С потерями
Размер потока : 118 Мбайт (8%)
Выравнивание : Разделение по промежуткам
Продолжительность промежутка : 40 мс. (1,00 видеокадр)
Время предзагрузки промежутка : 500 мс.
Заголовок : Профессиональный (полное дублирование)

Скриншоты


[Профиль] [ЛС]
Показать сообщения:    

Текущее время: Сегодня 20:10

Часовой пояс: GMT



Вы не можете начинать темы
Вы не можете отвечать на сообщения
Вы не можете редактировать свои сообщения
Вы не можете удалять свои сообщения
Вы не можете голосовать в опросах
Вы не можете прикреплять файлы к сообщениям
Вы не можете скачивать файлы