Мальчик в девочке / It's a Boy Girl Thing (2006) HDTVRip 720p от MediaClub | D, P2

 
Автор Сообщение

sergej644 ®

Пол:

Стаж: 4 года 11 месяцев

Сообщений: 6041

Откуда: Soviet Union



Награды: Нет

Торрент-статистика

Создавать темы 10-Фев-2015 14:01

[Цитировать]

Информация о фильме
Название: Мальчик в девочке
Оригинальное название: It's a Boy Girl Thing
Год выхода: 2006
Жанр: Фэнтези, мелодрама, комедия
Режиссер: Ник Харран
В ролях: Сэмэр Армстронг, Кевин Зегерс, Шерри Миллер, Роберт Джой, Шарон Осборн, Мори Чайкин, Мфо Коахо, Эмили Хэмпшир, Брук Д’Орсей, Дженелл Уильямс
О фильме:
Романтическая комедия, повествующая о двух соседях, девушке и парне, которые являются абсолютными противоположностями по жизни. Кроме того, они являются заклятыми врагами. Однако все меняется, когда однажды утром они обмениваются телами. Их реакция достаточно неожиданна, поначалу они пытаются нанести вред репутации своему новому образу, но наступает момент, когда заключив сделку между собой, они достигают небывалого успеха.

Страна: США, Великобритания, Канада
Студия: Alliance Atlantis Motion Picture Production, Icon Entertainmnet International, Prospero Pictures
Продолжительность: 01:30:52
Перевод: Дублированный (МОСФИЛЬМ-мастер), Профессиональный двухголосый (SDI Media)
Файл
Кодек: MPEG-4 AVC
Качество: HDTVRip 720p
Видео: 3700 Кбит/с, 1280x544, 25.000 кадр/с
Звук:
Аудио #1: Русский (АС3, 6 ch, 448 Кбит/с) / Дублированный (МОСФИЛЬМ-мастер)
Аудио #2: Русский (АС3, 2 ch, 192 Кбит/с) / Профессиональный двухголосый (SDI Media)
Семпл

Скриншоты

MI

Общее
Полное имя : Malchik.v.devochki.2006.x264.HDTVRip(720p).MediaClub.mkv
Формат : Matroska
Версия формата : Version 2
Размер файла : 2,76 Гбайт
Продолжительность : 1 ч. 30 м.
Общий поток : 4342 Кбит/сек
Название фильма : MediaClub
Дата кодирования : UTC 2014-10-10 14:35:33
Программа кодирования : mkvmerge v5.4.0 ('Piper') built on Mar 10 2012 13:34:39
Библиотека кодирования : libebml v1.2.3 + libmatroska v1.3.0
Видео
Идентификатор : 1
Формат : AVC
Формат/Информация : Advanced Video Codec
Профиль формата : High@L4.1
Параметр CABAC формата : Да
Параметр ReFrames формата : 10 кадров
Идентификатор кодека : V_MPEG4/ISO/AVC
Продолжительность : 1 ч. 30 м.
Битрейт : 3700 Кбит/сек
Ширина : 1280 пикселей
Высота : 544 пикселя
Соотношение сторон : 2,35:1
Режим частоты кадров : Постоянный
Частота кадров : 25,000 кадров/сек
Цветовое пространство : YUV
Субдискретизация насыщенности : 4:2:0
Битовая глубина : 8 бит
Тип развёртки : Прогрессивная
Бит/(Пиксели*Кадры) : 0.213
Размер потока : 2,29 Гбайт (83%)
Библиотека кодирования : x264 core 125 r2208 d9d2288
Настройки программы : cabac=1 / ref=10 / deblock=1:-3:-2 / analyse=0x3:0x133 / me=umh / subme=10 / psy=1 / psy_rd=1.00:0.20 / mixed_ref=1 / me_range=48 / chroma_me=1 / trellis=2 / 8x8dct=1 / cqm=0 / deadzone=21,11 / fast_pskip=0 / chroma_qp_offset=-3 / threads=6 / lookahead_threads=1 / sliced_threads=0 / nr=0 / decimate=0 / interlaced=0 / bluray_compat=0 / constrained_intra=0 / bframes=8 / b_pyramid=2 / b_adapt=2 / b_bias=0 / direct=3 / weightb=1 / open_gop=0 / weightp=2 / keyint=250 / keyint_min=25 / scenecut=40 / intra_refresh=0 / rc=2pass / mbtree=0 / bitrate=3700 / ratetol=1.0 / qcomp=0.60 / qpmin=0 / qpmax=69 / qpstep=4 / cplxblur=20.0 / qblur=0.5 / ip_ratio=1.40 / pb_ratio=1.30 / aq=1:1.00
Default : Да
Forced : Нет
Аудио #1
Идентификатор : 2
Формат : AC-3
Формат/Информация : Audio Coding 3
Расширение режима : CM (complete main)
Параметр Endianness формата : Big
Идентификатор кодека : A_AC3
Продолжительность : 1 ч. 30 м.
Вид битрейта : Постоянный
Битрейт : 448 Кбит/сек
Каналы : 6 каналов
Расположение каналов : Front: L C R, Side: L R, LFE
Частота : 48,0 КГц
Битовая глубина : 16 бит
Метод сжатия : С потерями
Задержка видео : 16 мс.
Размер потока : 291 Мбайт (10%)
Заголовок : Дублированный (МОСФИЛЬМ-мастер)
Язык : Russian
Default : Да
Forced : Нет
Аудио #2
Идентификатор : 3
Формат : AC-3
Формат/Информация : Audio Coding 3
Расширение режима : CM (complete main)
Параметр Endianness формата : Big
Идентификатор кодека : A_AC3
Продолжительность : 1 ч. 30 м.
Вид битрейта : Постоянный
Битрейт : 192 Кбит/сек
Каналы : 2 канала
Расположение каналов : Front: L R
Частота : 48,0 КГц
Битовая глубина : 16 бит
Метод сжатия : С потерями
Размер потока : 125 Мбайт (4%)
Заголовок : Профессиональный двухголосый (SDI Media)
Язык : Russian
Default : Нет
Forced : Нет
[Профиль] [ЛС]
Показать сообщения:    

Текущее время: Сегодня 03:08

Часовой пояс: GMT



Вы не можете начинать темы
Вы не можете отвечать на сообщения
Вы не можете редактировать свои сообщения
Вы не можете удалять свои сообщения
Вы не можете голосовать в опросах
Вы не можете прикреплять файлы к сообщениям
Вы не можете скачивать файлы