Малыш / Little Boy (2015) BDRip 1080p | P

 
Автор Сообщение

BOSS ®

Пол:

Стаж: 2 года 1 месяц

Сообщений: 3732

Откуда: ODESSA



Награды: 20 (Подробнее)

Top Keeper 4 (Количество: 1) За внесенный вклад в развитие сайта (Количество: 1) Top Keeper 1 (Количество: 1)
Торрент-статистика

Создавать темы 10-Мар-2016 17:03

[Цитировать]

Производство: Мексика, США / Metanoia Films, Santa Fé Films
Жанр: драма, военный
Режиссер: Алехандро Гомес Монтеверде
Продюсер: Алехандро Гомес Монтеверде, Лео Северино, Марк Барнетт
Актеры: Кевин Джеймс, Эли Ландри, Дэвид Хенри, Эмили Уотсон, Майкл Рапапорт, Тед Левайн, Том Уилкинсон, Абрахам Бенруби, Кэри-Хироюки Тагава, Бен Чаплин, Джейкоб Сальвати
Описание:
Простой американский ребенок пытается сделать невозможное — он хочет, чтобы его отец вернулся со Второй мировой войны.

Возраст: 12+ (зрителям, достигшим 12 лет)
Рейтинг MPAA: PG-13 (детям до 13 лет просмотр нежелателен)
Дата мировой премьеры: 24 апреля 2015
Продолжительность: 01:46:53
Качество: BDRip 1080p
Перевод: Профессиональный (многоголосый, закадровый) (FocusStudio)
Вид субтитров: Вшитые, отключаемые
Язык субтитров: Русский, Английский
Видео: AVC/H.264, 1920x800, (2.40:1), 17.1 Mbps, 23,976 fps
Аудио: DTS, 6 ch, 1509 kbps - Русский
Аудио: DTS, 6 ch, 1509 kbps - Английский

MediaInfo:

Format : Matroska
Format version : Version 4 / Version 2
File size : 15.3 GiB
Duration : 1h 46mn
Overall bit rate : 20.5 Mbps
Movie name : Little Boy @ FocusStudio
Encoded date : UTC 2016-03-05 15:19:31
Writing application : mkvmerge v8.3.0 ('Over the Horizon') 64bit
Writing library : libebml v1.3.1 + libmatroska v1.4.2
Video
ID : 1
Format : AVC
Format/Info : Advanced Video Codec
Format profile : High@L4.1
Format settings, CABAC : Yes
Format settings, ReFrames : 5 frames
Codec ID : V_MPEG4/ISO/AVC
Duration : 1h 46mn
Bit rate : 17.1 Mbps
Width : 1 920 pixels
Height : 800 pixels
Display aspect ratio : 2.40:1
Frame rate mode : Constant
Frame rate : 23.976 fps
Color space : YUV
Chroma subsampling : 4:2:0
Bit depth : 8 bits
Scan type : Progressive
Bits/(Pixel*Frame) : 0.464
Stream size : 12.8 GiB (83%)
Writing library : x264 core 148 r2665kMod a01e339
Encoding settings : cabac=1 / ref=5 / deblock=1:-3:-3 / analyse=0x3:0x133 / me=umh / subme=10 / psy=1 / fade_compensate=0.00 / psy_rd=1.00:0.00 / mixed_ref=1 / me_range=48 / chroma_me=1 / trellis=2 / 8x8dct=1 / cqm=0 / deadzone=21,11 / fast_pskip=1 / chroma_qp_offset=-2 / threads=4 / lookahead_threads=1 / sliced_threads=0 / nr=0 / decimate=1 / interlaced=0 / bluray_compat=0 / constrained_intra=0 / fgo=0 / bframes=10 / b_pyramid=2 / b_adapt=2 / b_bias=0 / direct=3 / weightb=1 / open_gop=0 / weightp=2 / keyint=250 / keyint_min=23 / scenecut=40 / intra_refresh=0 / rc_lookahead=40 / rc=crf / mbtree=0 / crf=17.7000 / qcomp=0.70 / qpmin=0 / qpmax=69 / qpstep=4 / vbv_maxrate=50000 / vbv_bufsize=62500 / crf_max=0.0 / nal_hrd=none / filler=0 / ip_ratio=1.30 / pb_ratio=1.20 / aq=3:0.65
Language : English
Default : Yes
Forced : No
Audio #1
ID : 2
Format : DTS
Format/Info : Digital Theater Systems
Mode : 16
Format settings, Endianness : Big
Codec ID : A_DTS
Duration : 1h 46mn
Bit rate mode : Constant
Bit rate : 1 509 Kbps
Channel(s) : 6 channels
Channel positions : Front: L C R, Side: L R, LFE
Sampling rate : 48.0 KHz
Bit depth : 24 bits
Compression mode : Lossy
Stream size : 1.13 GiB (7%)
Title : MVO FocusStudio
Language : Russian
Default : Yes
Forced : No
Audio #2
ID : 3
Format : DTS
Format/Info : Digital Theater Systems
Mode : 16
Format settings, Endianness : Big
Codec ID : A_DTS
Duration : 1h 46mn
Bit rate mode : Constant
Bit rate : 1 509 Kbps
Channel(s) : 6 channels
Channel positions : Front: L C R, Side: L R, LFE
Sampling rate : 48.0 KHz
Bit depth : 24 bits
Compression mode : Lossy
Stream size : 1.13 GiB (7%)
Language : English
Default : No
Forced : No
Text #1
ID : 4
Format : UTF-8
Codec ID : S_TEXT/UTF8
Codec ID/Info : UTF-8 Plain Text
Language : Russian
Default : No
Forced : No
Text #2
ID : 5
Format : UTF-8
Codec ID : S_TEXT/UTF8
Codec ID/Info : UTF-8 Plain Text
Language : English
Default : No
Forced : No
Menu
00:00:00.000 : en:00:00:00.000
00:04:17.215 : en:00:04:17.215
00:09:29.861 : en:00:09:29.861
00:16:54.764 : en:00:16:54.764
00:21:36.962 : en:00:21:36.962
00:27:01.745 : en:00:27:01.745
00:33:18.914 : en:00:33:18.914
00:38:45.365 : en:00:38:45.365
00:42:30.006 : en:00:42:30.006
00:47:38.230 : en:00:47:38.230
00:50:35.616 : en:00:50:35.616
00:55:34.998 : en:00:55:34.998
01:02:40.006 : en:01:02:40.006
01:07:49.023 : en:01:07:49.023
01:12:28.261 : en:01:12:28.261
01:19:20.756 : en:01:19:20.756
01:24:06.166 : en:01:24:06.166
01:28:39.439 : en:01:28:39.439
01:32:51.941 : en:01:32:51.941
01:37:46.986 : en:01:37:46.986
Скриншоты:

Время раздачи: 24/7
[Профиль] [ЛС]
Показать сообщения:    

Текущее время: Сегодня 12:30

Часовой пояс: GMT



Вы не можете начинать темы
Вы не можете отвечать на сообщения
Вы не можете редактировать свои сообщения
Вы не можете удалять свои сообщения
Вы не можете голосовать в опросах
Вы не можете прикреплять файлы к сообщениям
Вы не можете скачивать файлы