Малыш на драйве / Baby Driver (2017) BDRip-AVC | iTunes

 
Автор Сообщение

Swager ®

Пол:

Стаж: 2 года

Сообщений: 981



Награды: 3 (Подробнее)

Mega Seeder 2 (Количество: 1) Top Releaser 2 (Количество: 1) Mega Seeder 1 (Количество: 1)
Торрент-статистика

Создавать темы 06-Окт-2017 08:39

[Цитировать]

Информация о фильме
Название: Малыш на драйве
Оригинальное название: Baby Driver
Год выпуска: 2017
Страна: Великобритания, США
Жанр: боевик, триллер, криминал, музыка-Перевод: Дублированный [iTunes]
Субтитры: русские (Forced),
русские (Full),
Продолжительность: 01:52:40-Режиссер: Эдгар Райт
В ролях: Энсел Элгорт (Baby), Кевин Спейси (Doc), Лили Джеймс (Debora), Эйса Гонсалес (Darling), Джон Хэмм (Buddy), Джейми Фокс (Bats), Джон Бернтал (Griff), Фли (Eddie), Лэнни Джун (JD), Мика Ховард (Barista), Морган Браун (Street Preacher), Морс Диггз (Morse Diggs)-Описание:
Молодой парень по прозвищу Малыш обожает стильную музыку, быструю езду и адреналин в крови. Вся его жизнь - это сплошные погони и перестрелки, ведь он работает водителем, который помогает бандитам скрыться с места преступления. Однажды он по-настоящему влюбляется и решает выйти из игры, но сначала ему предстоит выполнить еще одно задание, которое вполне может оказаться последним в его жизни.-Рейтинг:
-Качество: BDRip-AVC
Формат: MKV
Видео: AVC, 1024x428 (2.40:1), 2200 kbps, 23,976 fps, 0,209 bpp
Аудио: русский / AC3 / 5.1 / 48 kHz / 384 kbps / ||
Навигация по главам: есть

ОтчетМедиаИнфо

General
Unique ID : 253385834123442821206630645341847111059 (0xBEA05627A0F94B8A950E724677A54593)
Complete name : E:Baby.Driver.2017.BDRip-AVC.Rip.by.White Smoke.R.G.Generalfilm.mkv
Format : Matroska
Format version : Version 4 / Version 2
File size : 2.03 GiB
Duration : 1 h 52 min
Overall bit rate : 2 585 kb/s
Movie name : Baby.Driver.2017.BDRip-AVC.Rip.by.White Smoke.R.G.Generalfilm.mkv
Encoded date : UTC 2017-10-05 16:54:01
Writing application : mkvmerge v6.8.0 ('Theme for Great Cities') 64bit built on Mar 2 2014 21:34:26
Writing library : libebml v1.3.0 + libmatroska v1.4.1
Video
ID : 1
Format : AVC
Format/Info : Advanced Video Codec
Format profile : High@L4.1
Format settings, CABAC : Yes
Format settings, ReFrames : 12 frames
Codec ID : V_MPEG4/ISO/AVC
Duration : 1 h 52 min
Bit rate : 2 200 kb/s
Width : 1 024 pixels
Height : 428 pixels
Display aspect ratio : 2.40:1
Frame rate mode : Constant
Frame rate : 23.976 (24000/1001) FPS
Color space : YUV
Chroma subsampling : 4:2:0
Bit depth : 8 bits
Scan type : Progressive
Bits/(Pixel*Frame) : 0.209
Stream size : 1.69 GiB (83%)
Writing library : x264 core 148 r2638 7599210
Encoding settings : cabac=1 / ref=12 / deblock=1:-1:-2 / analyse=0x3:0x113 / me=umh / subme=11 / psy=1 / psy_rd=1.00:0.14 / mixed_ref=1 / me_range=32 / chroma_me=1 / trellis=2 / 8x8dct=1 / cqm=0 / deadzone=21,11 / fast_pskip=0 / chroma_qp_offset=-5 / threads=6 / lookahead_threads=1 / sliced_threads=0 / nr=0 / decimate=0 / interlaced=0 / bluray_compat=0 / constrained_intra=0 / bframes=10 / b_pyramid=2 / b_adapt=2 / b_bias=10 / direct=1 / weightb=0 / open_gop=0 / weightp=2 / keyint=240 / keyint_min=23 / scenecut=40 / intra_refresh=0 / rc_lookahead=40 / rc=2pass / mbtree=1 / bitrate=2200 / ratetol=1.0 / qcomp=0.70 / qpmin=0 / qpmax=69 / qpstep=4 / cplxblur=20.0 / qblur=0.5 / vbv_maxrate=50000 / vbv_bufsize=65500 / nal_hrd=none / filler=0 / ip_ratio=1.40 / aq=1:1.00
Default : Yes
Forced : No
Audio
ID : 2
Format : AC-3
Format/Info : Audio Coding 3
Mode extension : CM (complete main)
Format settings, Endianness : Big
Codec ID : A_AC3
Duration : 1 h 52 min
Bit rate mode : Constant
Bit rate : 384 kb/s
Channel(s) : 6 channels
Channel positions : Front: L C R, Side: L R, LFE
Sampling rate : 48.0 kHz
Frame rate : 31.250 FPS (1536 spf)
Compression mode : Lossy
Stream size : 309 MiB (15%)
Title : iTunes
Language : Russian
Default : Yes
Forced : No
Text #1
ID : 3
Format : UTF-8
Codec ID : S_TEXT/UTF8
Codec ID/Info : UTF-8 Plain Text
Title : Forced
Language : Russian
Default : Yes
Forced : No
Text #2
ID : 4
Format : UTF-8
Codec ID : S_TEXT/UTF8
Codec ID/Info : UTF-8 Plain Text
Title : Full
Language : Russian
Default : No
Forced : No
Menu
00:00:00.000 : en:00:00:00.000
00:09:11.050 : en:00:09:11.050
00:13:30.476 : en:00:13:30.476
00:20:58.174 : en:00:20:58.174
00:25:17.599 : en:00:25:17.599
00:33:07.903 : en:00:33:07.903
00:43:43.246 : en:00:43:43.246
00:48:15.643 : en:00:48:15.643
00:53:39.550 : en:00:53:39.550
00:58:51.903 : en:00:58:51.903
01:05:23.545 : en:01:05:23.545
01:11:34.081 : en:01:11:34.081
01:19:17.002 : en:01:19:17.002
01:30:30.675 : en:01:30:30.675
01:38:04.170 : en:01:38:04.170
01:43:30.413 : en:01:43:30.413

Скриншоты

[Профиль] [ЛС]
Показать сообщения:    

Текущее время: Сегодня 19:06

Часовой пояс: GMT



Вы не можете начинать темы
Вы не можете отвечать на сообщения
Вы не можете редактировать свои сообщения
Вы не можете удалять свои сообщения
Вы не можете голосовать в опросах
Вы не можете прикреплять файлы к сообщениям
Вы не можете скачивать файлы