Малыш-каннабис / Kid Cannabis (Джон Стокуэлл / John Stockwell) [2014, США, драма, криминал, HDRip] VO (Andi) + Original Eng

 
Автор Сообщение

painkiller ®

Стаж: 2 года 3 месяца

Сообщений: 582



Награды: Нет

Торрент-статистика

Создавать темы 24-Авг-2014 01:02

[Цитировать]

Малыш-каннабис / Kid Cannabis
Страна: США
Жанр: драма, криминал
Год выпуска: 2014
Продолжительность: 01:49:36
Перевод: Одноголосый закадровый Andi
Cубтитры: нет
Оригинальная аудиодорожка: английский
Режиссер: Джон Стокуэлл / John Stockwell
В ролях: Джонатан Даниэль Браун, Кенни Вормолд, Аарон Йу, Рон Перлман, Джон К. МакГинли, Кори Лардж, Брайс Ходжсон, Алекс Арсено, Джеффри Баллард, Люк Дженнингс
Описание: Нэйт — исключенный из школы юноша, растущий с матерью-одиночкой и младшим братом. Поняв, что он больше не может выносить бедность и хочет лучшей жизни для семьи, Нэйт начинает раздумывать над тем, как разбогатеть на контрабанде горячо любимой им марихуаны. Как-то клиент, которому Нэйт доставляет пиццу, подсказывает ему, что Канада — выгодное место для совершения такого рода контрабанды. Тогда Нэйт и Тофер — его более зрелый друг, также обожающий марихуану — отправляются туда «на разведку», с чего и начинается их путь к богатству через многообещающий, но опасный мир наркотрафика…
Сэмпл
Качество видео: HDRip
Формат видео: AVI
Видео: XviD, 720х384, 2030 kb/s, 23.976 fps
Аудио: Russian: AC3, 192 kb/s (2 ch)
Аудио 2: English: AC3, 448 kb/s (6 ch)

MediaInfo

Общее
Полное имя : D:\Video\Kid.Cannabis.2014.L1.HDRip.2100MB.avi
Формат : AVI
Формат/Информация : Audio Video Interleave
Профиль формата : OpenDML
Размер файла : 2,06 Гбайт
Продолжительность : 1 ч. 49 м.
Общий поток : 2689 Кбит/сек
Программа кодирования : VirtualDubMod 1.5.10.3 | www.virtualdub-fr.org || (build 2550/release)
Библиотека кодирования : VirtualDubMod build 2550/release
Видео
Идентификатор : 0
Формат : MPEG-4 Visual
Профиль формата : Advanced Simple@L5
Параметр BVOP формата : 1
Параметр QPel формата : Нет
Параметр GMC формата : Без точки перехода
Параметр матрицы формата : Выборочная
Идентификатор кодека : XVID
Идентификатор кодека/Подсказка : XviD
Продолжительность : 1 ч. 49 м.
Битрейт : 2031 Кбит/сек
Ширина : 720 пикселей
Высота : 384 пикселя
Соотношение сторон : 1,85:1
Частота кадров : 23,976 кадра/сек
Цветовое пространство : YUV
Субдискретизация насыщенности : 4:2:0
Битовая глубина : 8 бит
Тип развёртки : Прогрессивная
Метод сжатия : С потерями
Бит/(Пиксели*Кадры) : 0.306
Размер потока : 1,55 Гбайт (76%)
Библиотека кодирования : XviD 73
Аудио #1
Идентификатор : 1
Формат : AC-3
Формат/Информация : Audio Coding 3
Расширение режима : CM (complete main)
Параметр Endianness формата : Big
Идентификатор кодека : 2000
Продолжительность : 1 ч. 49 м.
Вид битрейта : Постоянный
Битрейт : 192 Кбит/сек
Каналы : 2 канала
Расположение каналов : Front: L R
Частота : 48,0 КГц
Битовая глубина : 16 бит
Метод сжатия : С потерями
Размер потока : 150 Мбайт (7%)
Выравнивание : Разделение по промежуткам
Продолжительность промежутка : 42 мс. (1,00 видеокадр)
Время предзагрузки промежутка : 500 мс.
Аудио #2
Идентификатор : 2
Формат : AC-3
Формат/Информация : Audio Coding 3
Расширение режима : CM (complete main)
Параметр Endianness формата : Big
Идентификатор кодека : 2000
Продолжительность : 1 ч. 49 м.
Вид битрейта : Постоянный
Битрейт : 448 Кбит/сек
Каналы : 6 каналов
Расположение каналов : Front: L C R, Side: L R, LFE
Частота : 48,0 КГц
Битовая глубина : 16 бит
Метод сжатия : С потерями
Задержка видео : 32 мс.
Размер потока : 351 Мбайт (17%)
Выравнивание : Разделение по промежуткам
Продолжительность промежутка : 42 мс. (1,00 видеокадр)
Время предзагрузки промежутка : 500 мс.

Скриншоты

[Профиль] [ЛС]
Показать сообщения:    

Текущее время: Сегодня 08:29

Часовой пояс: GMT



Вы не можете начинать темы
Вы не можете отвечать на сообщения
Вы не можете редактировать свои сообщения
Вы не можете удалять свои сообщения
Вы не можете голосовать в опросах
Вы не можете прикреплять файлы к сообщениям
Вы не можете скачивать файлы