Малыш и Карлсон (1968) BDRip-AVC [Hi10P] от FREEISLAND

 
Автор Сообщение

Белочка ®

Пол:

Стаж: 5 лет 1 месяц

Сообщений: 2089



Награды: 1 (Подробнее)

Girls (Количество: 1)
Торрент-статистика

Создавать темы 25-Окт-2014 22:31

[Цитировать]

Год выпуска: 1968
Страна: СССР
Жанр: Мультфильм, короткометражка
Продолжительность: 00:18:36
Перевод: Не требуется
Режиссер: Борис Степанцев
Сценарий: Борис Ларин, Астрид Линдгрен
Композитор: Геннадий Гладков
Студия: Союзмультфильм
В ролях: Клара Румянова - Малыш, озвучка, Василий Ливанов - Карлсон, озвучка
Описание:
Семилетний мальчик, младший ребёнок в семье, скучает в одиночестве, когда к открытому окну его комнаты неожиданно подлетает человечек с пропеллером на спине и представляется: «Я — Карлсон, который живет на крыше».
Качество: BDRip-AVC
Контейнер: MKV
Видео кодек: H.264
Аудио кодек: AC3
Видео: H.264, 772x576 pix., 1655 Kbps, 25.000 fps, High10@L4.0
Аудио#1: AC3, 6 channels, 448 Kbps, 48.0 KHz, 16 bits
Аудио#2: AC3, 2 channels, 448 Kbps, 48.0 KHz, 16 bits-Внимание!
Рип в High10@L4.0, в настоящее время не поддерживается большинством аппаратных проигрывателей.
Для корректного воспроизведения может потребоваться обновление ПО.
Владельцам несовместимого железа просьба не беспокоить, на трекере есть альтернативные релизы.
Для ознакомления скачивайте сэмпл.- -

MediaInfo

General
Unique ID : 244392801634099591416094615326536910193 (0xB7DC576BA00D153B866B771E696A4571)
Complete name : D:BDRip-AVCKarlsonKarlson.part.1.1968.mkv
Format : Matroska
Format version : Version 2
File size : 340 MiB
Duration : 18mn 36s
Overall bit rate : 2 554 Kbps
Encoded date : UTC 2013-05-03 21:01:40
Writing application : mkvmerge v6.0.0 ('Coming Up For Air') built on Jan 20 2013 09:52:00
Writing library : libebml v1.3.0 + libmatroska v1.4.0
Video
ID : 1
Format : AVC
Format/Info : Advanced Video Codec
Format profile : High 10@L4.0
Format settings, CABAC : Yes
Format settings, ReFrames : 16 frames
Codec ID : V_MPEG4/ISO/AVC
Duration : 18mn 36s
Bit rate : 1 655 Kbps
Width : 772 pixels
Height : 576 pixels
Display aspect ratio : 4:3
Frame rate mode : Constant
Frame rate : 25.000 fps
Color space : YUV
Chroma subsampling : 4:2:0
Bit depth : 10 bits
Scan type : Progressive
Bits/(Pixel*Frame) : 0.149
Stream size : 214 MiB (63%)
Title : FREEISLAND.HD
Writing library : x264 core 129 r2230+696+35 805d074 tMod [10-bit@all X86_64]
Encoding settings : cabac=1 / ref=16 / deblock=1:-1:-1 / analyse=0x3:0x133 / me=tesa / subme=11 / psy=1 / fade_compensate=0.00 / psy_rd=0.40:0.00 / mixed_ref=1 / me_range=64 / chroma_me=1 / trellis=2 / 8x8dct=1 / cqm=0 / deadzone=21,11 / fast_pskip=1 / chroma_qp_offset=-2 / threads=4 / lookahead_threads=1 / sliced_threads=0 / nr=0 / decimate=1 / interlaced=0 / bluray_compat=0 / constrained_intra=0 / fgo=0 / bframes=8 / b_pyramid=2 / b_adapt=2 / b_bias=0 / direct=2 / weightb=1 / open_gop=0 / weightp=1 / keyint=240 / keyint_min=25 / scenecut=40 / intra_refresh=0 / rc_lookahead=50 / rc=2pass / mbtree=1 / bitrate=1655 / ratetol=1.0 / qcomp=0.60 / qpmin=0 / qpmax=81 / qpstep=4 / cplxblur=20.0 / qblur=0.5 / ip_ratio=1.40 / aq=1:0.60
Language : Russian
Default : Yes
Forced : No
Audio #1
ID : 2
Format : AC-3
Format/Info : Audio Coding 3
Mode extension : CM (complete main)
Format settings, Endianness : Big
Codec ID : A_AC3
Duration : 18mn 36s
Bit rate mode : Constant
Bit rate : 448 Kbps
Channel(s) : 6 channels
Channel positions : Front: L C R, Side: L R, LFE
Sampling rate : 48.0 KHz
Bit depth : 16 bits
Compression mode : Lossy
Stream size : 59.6 MiB (18%)
Title : 5.1
Language : Russian
Default : Yes
Forced : No
Audio #2
ID : 3
Format : AC-3
Format/Info : Audio Coding 3
Format profile : Dolby Digital
Mode extension : CM (complete main)
Format settings, Endianness : Big
Codec ID : A_AC3
Duration : 18mn 36s
Bit rate mode : Constant
Bit rate : 448 Kbps
Channel(s) : 2 channels
Channel positions : Front: L R
Sampling rate : 48.0 KHz
Bit depth : 16 bits
Compression mode : Lossy
Stream size : 59.6 MiB (18%)
Title : 2.0
Language : Russian
Default : No
Forced : No[/code]

Скриншоты

Релиз от:
[Профиль] [ЛС]
Показать сообщения:    

Текущее время: Сегодня 22:41

Часовой пояс: GMT



Вы не можете начинать темы
Вы не можете отвечать на сообщения
Вы не можете редактировать свои сообщения
Вы не можете удалять свои сообщения
Вы не можете голосовать в опросах
Вы не можете прикреплять файлы к сообщениям
Вы не можете скачивать файлы