Малыши-агуши / Goo Goo Babies (Алексей Алексеев / Alexey Alexeev) [2011, мультфильм, WEBRip-AVC]

 
Автор Сообщение

TorrentFilm ®

Пол:

Стаж: 2 года

Сообщений: 7741



Награды: Нет

Торрент-статистика

Создавать темы 26-Май-2015 00:04

[Цитировать]

Малыши-агуши / Goo Goo Babies
Страна: Россия
Жанр: мультфильм
Продолжительность: 00:02:07
Год выпуска: 2011
Режиссёр: Алексей Алексеев / Alexey Alexeev
Описание: Однажды в роддоме один из младенцев обнаруживает способность говорить, а за ним и остальные...
Доп. информация: Диплом "За самый смешной фильм" на Суздальском фестивале (2012)
Приз "За безусловность оптимизма" на фестивале "Золотая рыбка" (2012)
Качество: WEBRip-AVC
Формат: MP4
Видео: 776 kbps, 1280х720 (16:9), 25.000 fps, AVC (High@L3.1)
Аудио: 192 kbps, 44.1 kHz, 2 channels, AAC (LC)

Подробные технические данные

General
Complete name : Goo Goo Babies (2011).mp4
Format : MPEG-4
Format profile : Base Media / Version 2
Codec ID : mp42
File size : 14.5 MiB
Duration : 2mn 7s
Overall bit rate mode : Variable
Overall bit rate : 960 Kbps
Encoded date : UTC 2014-02-27 23:08:38
Tagged date : UTC 2014-02-27 23:08:38
gsst : 0
gstd : 127128
gssd : B4A7DD803MH1412268462802780
gshh : r3---sn-cg07luee.googlevideo.com
Video
ID : 1
Format : AVC
Format/Info : Advanced Video Codec
Format profile : High@L3.1
Format settings, CABAC : Yes
Format settings, ReFrames : 1 frame
Codec ID : avc1
Codec ID/Info : Advanced Video Coding
Duration : 2mn 7s
Bit rate : 766 Kbps
Maximum bit rate : 4 510 Kbps
Width : 1 280 pixels
Height : 720 pixels
Display aspect ratio : 16:9
Frame rate mode : Constant
Frame rate : 25.000 fps
Color space : YUV
Chroma subsampling : 4:2:0
Bit depth : 8 bits
Scan type : Progressive
Bits/(Pixel*Frame) : 0.033
Stream size : 11.6 MiB (80%)
Tagged date : UTC 2014-02-27 23:08:39
Audio
ID : 2
Format : AAC
Format/Info : Advanced Audio Codec
Format profile : LC
Codec ID : 40
Duration : 2mn 7s
Bit rate mode : Variable
Bit rate : 192 Kbps
Maximum bit rate : 204 Kbps
Channel(s) : 2 channels
Channel positions : Front: L R
Sampling rate : 44.1 KHz
Compression mode : Lossy
Stream size : 2.91 MiB (20%)
Title : IsoMedia File Produced by Google, 5-11-2011
Encoded date : UTC 2014-02-27 23:08:38
Tagged date : UTC 2014-02-27 23:08:39

Скриншоты

[Профиль] [ЛС]
Показать сообщения:    

Текущее время: Сегодня 14:28

Часовой пояс: GMT



Вы не можете начинать темы
Вы не можете отвечать на сообщения
Вы не можете редактировать свои сообщения
Вы не можете удалять свои сообщения
Вы не можете голосовать в опросах
Вы не можете прикреплять файлы к сообщениям
Вы не можете скачивать файлы