Малышарики [01-34+ 10 бонусов из ?] (2015) WEBRip 720p от -merci-

 
Автор Сообщение

достали все ®

Пол:

Стаж: 1 год 8 месяцев

Сообщений: 6515



Награды: 12 (Подробнее)

Top Releaser 3 (Количество: 1) Mega Releaser 1 (Количество: 1) Mega Seeder 1 (Количество: 1)
Торрент-статистика

Создавать темы 22-Фев-2016 05:46

[Цитировать]

Информация о фильме
Название: Малышарики
Год выпуска: 2015
Страна: Россия, Студия анимации «Петербург»
Жанр: Обучающий мультфильм, рисованный, детский
Продолжительность: - 00:05:00
Перевод: не требуется
субтитры: отсутствуют
Режиссёр: Марина Мошкова
Озвучивали: Анна Геллер, Марианна Мокшина
Описание: Новый мультсериал «Малышарики» представили маленьким зрителям российские мультипликаторы. Он рассчитан на детскую аудиторию, возрастом от 0 до 4 лет. Многие уже знакомы с персонажами увлекательного и смешного мультика «Смешарики». И, наверное, всем интересно, какими были эти герои в детстве? Дети познакомятся с Нюшей и Барашем, Крошем, Ежиком, Лосяшем, и другими забавными персонажами.
Мир Малышариков – это простой и понятный мир увлечений, радости и заботы. В нем живут Малышарики, каждый из которых уже имеет свой особенный характер. Они всегда готовы придумать новую игру или поделиться своими знаниями и умениями. Малышарики говорят с малышами на одном удивительном – детском языке, поэтому всегда близки и понятны.

Список серий

01. Качели
02. Прогулка
03. Фломастеры
04. Ракета
05. Следы
06. Башня
07. Красная шапочка
08. Солнышко
09. Ёлка
10. Попрыгушки
11. Ручейки
12. Машинка
13. Прятки
14. Домики
15. Ведёрко
16. На площадке
17. Самокат
18. Футбол
19. Спокойной ночи, Звёздочка
20. Шмяк
21. Цветок
22. Просыпайся
23. Самолётик
24. Лошадка - Уборка игрушек
25. Рыбалка
25. Рыбалка
26. Мозаика
27. Ушки
28. Подружки
29. Обруч
30. Стёклышко
31. Зеленука
32. Бусики
33. Сказочка
34. Сладкоежки
Бонус_Умные песенки
001. Жёлтый и синий
002. Лёгкое и тяжёлое
003. Длинное и короткое
004. Чёрное и белое
005. Один и много
006. Красный
007. Круг
008. Твёрдое и мягкое
009. Узкое и широкое!
010. Спасибо и пожалуйста
Доп. информация:
Семпл
Файл
Формат: MP4
Качество: WEBRip 720p
Видео: MPEG4-AVC, 1280x720 (16:9), 25 fps, ~1011 kbps avg, 0.044 bit/pixel
Аудио: 44,1 kHz, AАC-LC, 2.0, ~192 kbpsp

MI

03. Фломастеры. HD-merci-.mp4
Format : MPEG-4
Format profile : Base Media
Codec ID : isom (isom/mp42)
File size : 42.3 MiB
Duration : 4mn 53s
Overall bit rate mode : Variable
Overall bit rate : 1 208 Kbps
Encoded date : UTC 2015-11-29 09:31:57
Tagged date : UTC 2015-11-29 09:31:57
Writing application : Lavf56.1.100
Video
ID : 1
Format : AVC
Format/Info : Advanced Video Codec
Format profile : High@L3.1
Format settings, CABAC : Yes
Format settings, ReFrames : 1 frame
Codec ID : avc1
Codec ID/Info : Advanced Video Coding
Duration : 4mn 53s
Bit rate : 1 011 Kbps
Width : 1 280 pixels
Height : 720 pixels
Display aspect ratio : 16:9
Frame rate mode : Variable
Frame rate : 25.000 fps
Minimum frame rate : 22.693 fps
Maximum frame rate : 25.000 fps
Color space : YUV
Chroma subsampling : 4:2:0
Bit depth : 8 bits
Scan type : Progressive
Bits/(Pixel*Frame) : 0.044
Stream size : 35.4 MiB (84%)
Language : English
Encoded date : UTC 2015-11-29 09:31:57
Tagged date : UTC 2015-11-29 09:31:57
Color range : Limited
Color primaries : BT.709
Transfer characteristics : BT.709
Matrix coefficients : BT.709
mdhd_Duration : 293976
Audio
ID : 2
Format : AAC
Format/Info : Advanced Audio Codec
Format profile : LC
Codec ID : 40
Duration : 4mn 53s
Source duration : 4mn 53s
Bit rate mode : Variable
Bit rate : 192 Kbps
Channel(s) : 2 channels
Channel positions : Front: L R
Sampling rate : 44.1 KHz
Frame rate : 43.066 fps (1024 spf)
Compression mode : Lossy
Stream size : 6.73 MiB (16%)
Source stream size : 6.73 MiB (16%)
Language : English
Encoded date : UTC 2015-11-29 09:31:57
Tagged date : UTC 2015-11-29 09:31:57
mdhd_Duration : 293988

Скриншоты

Релиз от: -merci-
[Профиль] [ЛС]
Показать сообщения:    

Текущее время: Сегодня 04:59

Часовой пояс: GMT



Вы не можете начинать темы
Вы не можете отвечать на сообщения
Вы не можете редактировать свои сообщения
Вы не можете удалять свои сообщения
Вы не можете голосовать в опросах
Вы не можете прикреплять файлы к сообщениям
Вы не можете скачивать файлы