Малефисента / Maleficent (2014) BDRip 720p | ATV | D | Лицензия

 
Автор Сообщение

sergej644 ®

Пол:

Стаж: 4 года 11 месяцев

Сообщений: 6035

Откуда: Soviet Union



Награды: Нет

Торрент-статистика

Создавать темы 08-Фев-2015 11:21

[Цитировать]

Малефисента / Maleficent (2014) BDRip 720p | ATV | D | Лицензия
«Не верьте сказкам»
Название: Малефисента
Оригинальное название: Maleficent
Год выхода: 2014
Жанр: фэнтези, семейный, мелодрама, приключения
Режиссер: Роберт Стромберг
В ролях: Анджелина Джоли, Эль Фаннинг, Шарлто Копли, Сэм Райли, Имелда Стонтон, Джуно Темпл, Лесли Мэнвилл, Брентон Туэйтс, Кеннет Крэнэм, Изобель Моллой
О фильме:
Юная волшебница Малефисента вела уединенную жизнь в зачарованном лесу, окруженная сказочными существами, но однажды все изменилось… В её мир вторглись люди, которые принесли с собой разрушение и хаос, и Малефисенте пришлось встать на защиту своих подданных, призвав на помощь могущественные тёмные силы. В пылу борьбы Малефисента наложила страшное заклятие на новорожденную дочь короля, прекрасную Аврору. Но, наблюдая за тем, как растет маленькая принцесса, Малефисента начинает сомневаться в правильности своего поступка — ведь, возможно, именно Аврора может вдохнуть новую жизнь в волшебное лесное царство.

Страна: США, Великобритания
Студия: Roth Films, Walt Disney Pictures
Продолжительность: 01:37:50
Перевод: Русский дублированный (Лицензия)
Файл
Кодек: H.264
Качество: BDRip [720p]
Видео: 1280x534, 2.40:1, 4 400 Kbps, 23.976 fps
Звук:
1: АAС 2.0 152 kbps - Русский дублированный
2: АС3 5.1 640 kbps - Русский дублированный
3: АAС 2.0 140 kbps - Английский
4: АС3 5.1 384 kbps - Английский
Субтитры: Русский, Английский (Full, SDH)

iTunes Meta Tags

Sort Name: Maleficent
XID: Apple:vendor_id:2014-tt1587310
Content ID: 870999110
Copyright: © 2014 Walt Disney Pictures
ScreenWriters: Линда Вулвертон, Джо Ринальди, Уинстон Хиблер
Producers: Джо Рот, Сара Брэдшоу, Дон Хан
Director: Роберт Стромберг
Cast: Angelina Jolie (Maleficent), Elle Fanning (Princess Aurora), Juno Temple (Thistletwit), Sharlto Copley (Stefan), Isobelle Molloy (Young Maleficent), Miranda Richardson (Queen Ulla), Brenton Thwaites (Young Prince), Imelda Staunton (Knotgrass), Sam Ri...
Rating: PG
Long Deion: Юная волшебница Малефисента вела уединенную жизнь в зачарованном лесу, окруженная сказочными существами, но однажды все изменилось… В её мир вторглись люди, которые принесли с собой разрушение и хаос, и Малефисенте пришлось встать на защиту своих подданных, призвав на помощь могущественные тёмные силы. В пылу борьбы Малефисента наложила страшное заклятие на новорожденную дочь короля, прекрасную Аврору. Но, наблюдая за тем, как растет маленькая принцесса, Малефисента начинает сомневаться в правильности своего поступка — ведь, возможно, именно Аврора может вдохнуть новую жизнь в волшебное лесное царство.
Deion: Юная волшебница Малефисента вела уединенную жизнь в зачарованном лесу, окруженная сказочными существами, но однажды все изменилось… В её мир вторглись люди, которые принесли с собой разрушение и хаос, и Малефисенте пришлось встать на защиту
Release Date: 2014-05-30T07:00:00Z
Genre: Sci-Fi & Fantasy
Artist: Robert Stromberg
Name: Малефисента
Comments: «Не верьте сказкам»

MediaInfo

General
Complete name : I:modoutMalefisenta.2014.720p.D.m4v
Format : MPEG-4
Codec ID : M4V
File size : 3.90 GiB
Duration : 1h 37mn
Overall bit rate mode : Variable
Overall bit rate : 5 722 Kbps
Movie name : Малефисента
Performer : Robert Stromberg
Genre : Sci-Fi & Fantasy
ContentType : Short Film
Deion : Юная волшебница Малефисента вела уединенную жизнь в зачарованном лесу, окруженная сказочными существами, но однажды все изменилось… В её мир вторглись люди, которые принесли с собой разрушение и хаос, и Малефисенте пришлось встать на защиту своих под
Recorded date : UTC 2014-05-30 07:00:00
Encoded date : UTC 2014-09-13 14:49:04
Tagged date : UTC 2014-09-13 14:54:46
Copyright : © Walt Disney Pictures
Cover : Yes
Comment : «Не верьте сказкам»
ContentRating : mpaa|PG|200|
Title/Sort : Maleficent
LongDeion : Юная волшебница Малефисента вела уединенную жизнь в зачарованном лесу, окруженная сказочными существами, но однажды все изменилось… В её мир вторглись люди, которые принесли с собой разрушение и хаос, и Малефисенте пришлось встать на защиту своих подданных, призвав на помощь могущественные тёмные силы. В пылу борьбы Малефисента наложила страшное заклятие на новорожденную дочь короля, прекрасную Аврору. Но, наблюдая за тем, как растет маленькая принцесса, Малефисента начинает сомневаться в правильности своего поступка — ведь, возможно, именно Аврора может вдохнуть новую жизнь в волшебное лесное царство.
HDVideo : Yes
AppleStoreCatalogID : 870999110
Vendor : Apple:vendor_id:2014-tt1587310
Video
ID : 1
Format : AVC
Format/Info : Advanced Video Codec
Format profile : High@L4.1
Format settings, CABAC : Yes
Format settings, ReFrames : 10 frames
Codec ID : avc1
Codec ID/Info : Advanced Video Coding
Duration : 1h 37mn
Bit rate : 4 392 Kbps
Maximum bit rate : 21.6 Mbps
Width : 1 280 pixels
Height : 534 pixels
Display aspect ratio : 2.40:1
Frame rate mode : Constant
Frame rate : 23.976 fps
Color space : YUV
Chroma subsampling : 4:2:0
Bit depth : 8 bits
Scan type : Progressive
Bits/(Pixel*Frame) : 0.268
Stream size : 2.99 GiB (77%)
Language : English
Encoded date : UTC 2014-09-13 14:49:04
Tagged date : UTC 2014-09-13 14:49:37
Matrix coefficients : BT.709
Audio #1
ID : 2
Format : AAC
Format/Info : Advanced Audio Codec
Format profile : LC
Codec ID : 40
Duration : 1h 37mn
Bit rate mode : Variable
Bit rate : 154 Kbps
Maximum bit rate : 201 Kbps
Channel(s) : 2 channels
Channel positions : Front: L R
Sampling rate : 48.0 KHz
Compression mode : Lossy
Stream size : 107 MiB (3%)
Title : AAC DUB
Language : Russian
Encoded date : UTC 2014-09-13 14:42:47
Tagged date : UTC 2014-09-13 14:49:37
Audio #2
ID : 3
Format : AC-3
Format/Info : Audio Coding 3
Mode extension : CM (complete main)
Format settings, Endianness : Big
Codec ID : ac-3
Duration : 1h 37mn
Bit rate mode : Constant
Bit rate : 640 Kbps
Channel(s) : 6 channels
Channel positions : Front: L C R, Side: L R, LFE
Sampling rate : 48.0 KHz
Bit depth : 16 bits
Compression mode : Lossy
Stream size : 446 MiB (11%)
Title : AC3 DUB
Language : Russian
Encoded date : UTC 2014-09-13 14:49:29
Tagged date : UTC 2014-09-13 14:49:37
Audio #3
ID : 4
Format : AAC
Format/Info : Advanced Audio Codec
Format profile : LC
Codec ID : 40
Duration : 1h 37mn
Bit rate mode : Variable
Bit rate : 140 Kbps
Maximum bit rate : 181 Kbps
Channel(s) : 2 channels
Channel positions : Front: L R
Sampling rate : 48.0 KHz
Compression mode : Lossy
Stream size : 97.5 MiB (2%)
Language : English
Encoded date : UTC 2014-09-13 14:47:17
Tagged date : UTC 2014-09-13 14:49:37
Audio #4
ID : 5
Format : AC-3
Format/Info : Audio Coding 3
Mode extension : CM (complete main)
Format settings, Endianness : Big
Codec ID : ac-3
Duration : 1h 37mn
Bit rate mode : Constant
Bit rate : 384 Kbps
Channel(s) : 6 channels
Channel positions : Front: L C R, Side: L R, LFE
Sampling rate : 48.0 KHz
Bit depth : 16 bits
Compression mode : Lossy
Stream size : 268 MiB (7%)
Language : English
Encoded date : UTC 2014-09-13 14:49:34
Tagged date : UTC 2014-09-13 14:49:37
Text #1
ID : 6
Format : Timed Text
Muxing mode : sbtl
Codec ID : tx3g
Duration : 1h 29mn
Bit rate mode : Variable
Bit rate : 55 bps
Stream size : 36.0 KiB (0%)
Language : Russian
Encoded date : UTC 2014-09-13 14:49:37
Tagged date : UTC 2014-09-13 14:49:37
Text #2
ID : 7
Format : Timed Text
Muxing mode : sbtl
Codec ID : tx3g
Duration : 1h 31mn
Bit rate mode : Variable
Bit rate : 46 bps
Stream size : 30.7 KiB (0%)
Language : English
Encoded date : UTC 2014-09-13 14:49:37
Tagged date : UTC 2014-09-13 14:49:37
Text #3
ID : 8
Format : Timed Text
Muxing mode : sbtl
Codec ID : tx3g
Duration : 1h 28mn
Bit rate mode : Variable
Bit rate : 36 bps
Stream size : 23.4 KiB (0%)
Language : English
Encoded date : UTC 2014-09-13 14:49:37
Tagged date : UTC 2014-09-13 14:49:37
Menu
ID : 9
Codec ID : text
Duration : 1h 37mn
Encoded date : UTC 2014-09-13 14:50:10
Tagged date : UTC 2014-09-13 14:50:10
Bit rate mode : CBR

x264

x264 [info]: started at Sat Sep 13 13:14:05 2014
x264 [info]: frame I:1237 Avg QP:13.59 size:181736
x264 [info]: frame P:32587 Avg QP:17.60 size: 47357
x264 [info]: frame B:106390 Avg QP:20.44 size: 13560
x264 [info]: consecutive B-frames: 2.8% 2.8% 13.0% 21.6% 17.5% 32.7% 5.4% 2.2% 2.0%
x264 [info]: mb I I16..4: 20.4% 52.0% 27.6%
x264 [info]: mb P I16..4: 0.3% 5.5% 1.4% P16..4: 22.7% 33.7% 17.9% 7.9% 1.9% skip: 8.6%
x264 [info]: mb B I16..4: 0.0% 0.9% 0.2% B16..8: 32.5% 21.3% 4.3% direct: 7.3% skip:33.5% L0:38.9% L1:42.9% BI:18.3%
x264 [info]: 8x8 transform intra:70.9% inter:47.0%
x264 [info]: coded y,uvDC,uvAC intra: 93.3% 92.3% 83.0% inter: 28.4% 27.7% 16.0%
x264 [info]: i16 v,h,dc,p: 19% 8% 30% 44%
x264 [info]: i8 v,h,dc,ddl,ddr,vr,hd,vl,hu: 12% 7% 8% 11% 15% 12% 12% 11% 12%
x264 [info]: i4 v,h,dc,ddl,ddr,vr,hd,vl,hu: 18% 6% 8% 9% 14% 12% 12% 10% 12%
x264 [info]: i8c dc,h,v,p: 29% 15% 12% 44%
x264 [info]: Weighted P-Frames: Y:8.1% UV:4.2%
x264 [info]: ref P L0: 55.3% 10.7% 13.8% 6.0% 4.3% 3.1% 2.4% 1.5% 1.4% 1.2% 0.3% 0.0%
x264 [info]: ref B L0: 83.6% 7.9% 3.4% 1.6% 1.2% 0.9% 0.7% 0.6% 0.3%
x264 [info]: ref B L1: 92.8% 7.2%
x264 [info]: kb/s:4392.05
[Профиль] [ЛС]
Кто просматривает тему:

Форум Тема Автор Размер
Фильмы (HD DVD, Blu-ray и BDRemux) Малефисента / Maleficent (2014) BDRip 1080p от MediaClub | Лицензия sergej644 11.78 GB
Фильмы (HD Rips | 720p, 1080p) Малефисента / Maleficent (2014) BDRip 1080p от R.G. HD-Films | 60 fps sergej644 7.94 GB
Фильмы (HD Rips | 720p, 1080p) Малефисента / Maleficent (2014) BDRip 720p | D | Лицензия sergej644 3.69 GB
Фильмы (HD Rips | 720p, 1080p) Малефисента / Maleficent (2014) BDRip 720p от Leonardo and Scarabey | Лицензия sergej644 2.97 GB
Фильмы 2014 года Малефисента / Maleficent (2014) BDRip от New-Team | D | лицензия Белочка 1.46 GB
Зарубежные Малефисента 3D / Maleficent 3D (Роберт Стромберг / Robert Stromberg) [2014, США, Великобритания, фэнтези, семейный, мелодрама, приключения, Blu-ray disc 1080p] DUB BD3D CEE TorrentFilm 37.13 GB
Зарубежные Малефисента в 3Д / Maleficent 3D (Роберт Стромберг / Robert Stromberg) [2014, Фэнтези, Семейный, Мелодрама, Приключения, BDrip, 1080p] OverUnder / Вертикальная стереопара TorrentFilm 10.43 GB
Зарубежные Малефисента в 3Д / Maleficent 3D (Роберт Стромберг / Robert Stromberg) [2014, фэнтези, семейный, мелодрама, приключения, BDRip-AVC] Half SideBySide / Горизонтальная анаморфная стереопара TorrentFilm 8.05 GB
Показать сообщения:    

Текущее время: Сегодня 00:35

Часовой пояс: GMT



Вы не можете начинать темы
Вы не можете отвечать на сообщения
Вы не можете редактировать свои сообщения
Вы не можете удалять свои сообщения
Вы не можете голосовать в опросах
Вы не можете прикреплять файлы к сообщениям
Вы не можете скачивать файлы