Малефисента / Maleficent (2014) BDRip от New-Team | D | лицензия

 
Автор Сообщение

Белочка ®

Пол:

Стаж: 5 лет 1 месяц

Сообщений: 2089



Награды: 1 (Подробнее)

Girls (Количество: 1)
Торрент-статистика

Создавать темы 11-Окт-2014 18:22

[Цитировать]

«Не верьте сказкам» -Страна: США, Великобритания / Roth Films, Walt Disney Pictures
Жанр: фэнтези, семейный, мелодрама, приключения
Год выпуска: 2014
Продолжительность: 01:37:28
Перевод: Профессиональный (дублированный)
Cубтитры: нет
Оригинальная аудиодорожка: нет
Режиссер: Роберт Стромберг / Robert Stromberg
В ролях: Анджелина Джоли, Эль Фаннинг, Шарлто Копли, Лесли Мэнвилл, Имелда Стонтон, Джуно Темпл, Сэм Райли, Брентон Туэйтс, Кеннет Крэнэм, Сара Флинд...
Роли дублировали: Светлана Кузнецова, Мария Якименко, Вадим Романов, Анастасия Фомичева, Александр Койгеров...
Описание: Юная волшебница Малефисента вела уединенную жизнь в зачарованном лесу, окруженная сказочными существами, но однажды все изменилось… В её мир вторглись люди, которые принесли с собой разрушение и хаос, и Малефисенте пришлось встать на защиту своих подданных, призвав на помощь могущественные тёмные силы. В пылу борьбы Малефисента наложила страшное заклятие на новорожденную дочь короля, прекрасную Аврору. Но, наблюдая за тем, как растет маленькая принцесса, Малефисента начинает сомневаться в правильности своего поступка — ведь, возможно, именно Аврора может вдохнуть новую жизнь в волшебное лесное царство.

Качество: BDRip / Blu-ray 1080p
Формат: AVI
Видео: 720x304, XviD 1690 kbps / 23.976 fps / 2.40:1 / 0.322 bit/pix
Аудио: Russian: 48 kHz, AC3, 5/1 ch, 448.00 kbps
Раздача от:

MediaInfo

Общее
Полное имя : Malefisenta.2014.D.BDRip_[New-team]_by_avproh.avi
Формат : AVI
Формат/Информация : Audio Video Interleave
Размер файла : 1,46 Гбайт
Продолжительность : 1 ч. 37 м.
Общий поток : 2148 Кбит/сек
Программа кодирования : VirtualDubModRus 1.5.10.2 (build 2542/release)
Библиотека кодирования : VirtualDubMod build 2542/release
Видео
Идентификатор : 0
Формат : MPEG-4 Visual
Профиль формата : Advanced Simple@L5
Параметр BVOP формата : 1
Параметр QPel формата : Нет
Параметр GMC формата : Без точки перехода
Параметр матрицы формата : Выборочная
Идентификатор кодека : XVID
Идентификатор кодека/Подсказка : XviD
Продолжительность : 1 ч. 37 м.
Битрейт : 1690 Кбит/сек
Ширина : 720 пикселей
Высота : 304 пикселя
Соотношение сторон : 2,35:1
Частота кадров : 23,976 кадра/сек
Цветовое пространство : YUV
Субдискретизация насыщенности : 4:2:0
Битовая глубина : 8 бит
Тип развёртки : Прогрессивная
Метод сжатия : С потерями
Бит/(Пиксели*Кадры) : 0.322
Размер потока : 1,15 Гбайт (79%)
Библиотека кодирования : XviD 73
Аудио
Идентификатор : 1
Формат : AC-3
Формат/Информация : Audio Coding 3
Расширение режима : CM (complete main)
Параметр Endianness формата : Big
Идентификатор кодека : 2000
Продолжительность : 1 ч. 37 м.
Вид битрейта : Постоянный
Битрейт : 448 Кбит/сек
Каналы : 6 каналов
Расположение каналов : Front: L C R, Side: L R, LFE
Частота : 48,0 КГц
Битовая глубина : 16 бит
Метод сжатия : С потерями
Размер потока : 312 Мбайт (21%)
Выравнивание : Разделение по промежуткам
Продолжительность промежутка : 42 мс.

Скриншоты:

[Профиль] [ЛС]
Кто просматривает тему:

Форум Тема Автор Размер
Фильмы (HD DVD, Blu-ray и BDRemux) Малефисента / Maleficent (2014) BDRip 1080p от MediaClub | Лицензия sergej644 11.78 GB
Фильмы (HD Rips | 720p, 1080p) Малефисента / Maleficent (2014) BDRip 1080p от R.G. HD-Films | 60 fps sergej644 7.94 GB
Фильмы (HD Rips | 720p, 1080p) Малефисента / Maleficent (2014) BDRip 720p | ATV | D | Лицензия sergej644 3.9 GB
Фильмы (HD Rips | 720p, 1080p) Малефисента / Maleficent (2014) BDRip 720p | D | Лицензия sergej644 3.69 GB
Фильмы (HD Rips | 720p, 1080p) Малефисента / Maleficent (2014) BDRip 720p от Leonardo and Scarabey | Лицензия sergej644 2.97 GB
Зарубежные Малефисента 3D / Maleficent 3D (Роберт Стромберг / Robert Stromberg) [2014, США, Великобритания, фэнтези, семейный, мелодрама, приключения, Blu-ray disc 1080p] DUB BD3D CEE TorrentFilm 37.13 GB
Зарубежные Малефисента в 3Д / Maleficent 3D (Роберт Стромберг / Robert Stromberg) [2014, Фэнтези, Семейный, Мелодрама, Приключения, BDrip, 1080p] OverUnder / Вертикальная стереопара TorrentFilm 10.43 GB
Зарубежные Малефисента в 3Д / Maleficent 3D (Роберт Стромберг / Robert Stromberg) [2014, фэнтези, семейный, мелодрама, приключения, BDRip-AVC] Half SideBySide / Горизонтальная анаморфная стереопара TorrentFilm 8.05 GB
Показать сообщения:    

Текущее время: Сегодня 18:14

Часовой пояс: GMT



Вы не можете начинать темы
Вы не можете отвечать на сообщения
Вы не можете редактировать свои сообщения
Вы не можете удалять свои сообщения
Вы не можете голосовать в опросах
Вы не можете прикреплять файлы к сообщениям
Вы не можете скачивать файлы