Малефисента в 3Д / Maleficent 3D (Роберт Стромберг / Robert Stromberg) [2014, фэнтези, семейный, мелодрама, приключения, BDRip-AVC] Half SideBySide / Горизонтальная анаморфная стереопара

 
Автор Сообщение

TorrentFilm ®

Пол:

Стаж: 2 года

Сообщений: 7741



Награды: Нет

Торрент-статистика

Создавать темы 01-Апр-2016 00:08

[Цитировать]

Малефисента
Maleficent
- Год выпуска: 2014
Страна: США, Великобритания
Жанр: фэнтези, семейный, мелодрама, приключения
Продолжительность: 01:37:28
Перевод: Профессиональный (дублированный)
Русские субтитры: есть
Оригинальная аудиодорожка: английский-Режиссер: Роберт Стромберг / Robert Stromberg-В ролях: Анджелина Джоли, Эль Фаннинг, Шарлто Копли, Лесли Мэнвилл, Имелда Стонтон, Джуно Темпл, Сэм Райли, Брентон Туэйтс, Кеннет Крэнэм, Сара Флинд.-Описание: Юная волшебница Малефисента вела уединенную жизнь в зачарованном лесу, окруженная сказочными существами, но однажды все изменилось… В её мир вторглись люди, которые принесли с собой разрушение и хаос, и Малефисенте пришлось встать на защиту своих подданных, призвав на помощь могущественные тёмные силы. В пылу борьбы Малефисента наложила страшное заклятие на новорожденную дочь короля, прекрасную Аврору. Но, наблюдая за тем, как растет маленькая принцесса, Малефисента начинает сомневаться в правильности своего поступка — ведь, возможно, именно Аврора может вдохнуть новую жизнь в волшебное лесное царство.-Релиз от: -Формат 3D: Half SideBySide | Горизонтальная анаморфная стереопара
Качество: BDRip-AVC (Рип VietHD)
Контейнер: MKV
Видео: 1920x1080 (16:9), 23.976 fps, x264@L4.1 ~9056 kbps
Аудио 1: Russian 48 kHz, AC3, 3/2 (L,C,R,l,r) + LFE ch, 640.00 kbps | BD EUR
Аудио 2: Ukrainian 48 kHz, AC3, 3/2 (L,C,R,l,r) + LFE ch, 384.00 kbps | iTunes
Аудио 3: English 48 kHz, DTS, 3/2 (L,C,R,l,r) + LFE ch, 1536.00 kbps | BD EUR
Субтитры: русские полные, английские полные, английские полные sdh, английские полные sdh colored

Инфо

Format : Matroska
File size : 8.05 GiB
Duration : 1h 37mn
Overall bit rate : 11.8 Mbps
Movie name : Maleficent (2014) [3D] - Release for HDCLUB
Encoded date : UTC 2014-09-30 20:17:45
Writing application : mkvmerge v3.4.0 ('Rapunzel') built on May 15 2010 09:38:20
Writing library : libebml v0.8.0 + libmatroska v0.9.0
Video
ID : 1
Format : AVC
Format/Info : Advanced Video Codec
Format profile : High@L4.1
Format settings, CABAC : Yes
Format settings, ReFrames : 4 frames
Codec ID : V_MPEG4/ISO/AVC
Duration : 1h 37mn
Bit rate : 9 056 Kbps
Width : 1 920 pixels
Height : 1 080 pixels
Display aspect ratio : 16:9
Frame rate : 23.976 fps
Color space : YUV
Chroma subsampling : 4:2:0
Bit depth : 8 bits
Scan type : Progressive
Bits/(Pixel*Frame) : 0.182
Stream size : 6.17 GiB (77%)
Title : Maleficent (2014) [3D] - Release for HDCLUB
Writing library : x264 core 142 r2431+42 c69a006 tMod [8-bit@all X86_64]
Encoding settings : cabac=1 / ref=4 / deblock=1:-3:-3 / analyse=0x3:0x133 / me=umh / subme=10 / psy=1 / fade_compensate=0.00 / psy_rd=1.00:0.00 / mixed_ref=1 / me_range=24 / chroma_me=1 / trellis=2 / 8x8dct=1 / cqm=0 / deadzone=21,11 / fast_pskip=1 / chroma_qp_offset=-2 / threads=12 / lookahead_threads=3 / sliced_threads=0 / nr=0 / decimate=1 / interlaced=0 / bluray_compat=0 / constrained_intra=0 / fgo=0 / bframes=10 / b_pyramid=2 / b_adapt=2 / b_bias=0 / direct=3 / weightb=1 / open_gop=0 / weightp=2 / keyint=250 / keyint_min=23 / scenecut=40 / intra_refresh=0 / rc=crf / mbtree=0 / crf=16.5000 / qcomp=0.65 / qpmin=0:0:0 / qpmax=69:69:69 / qpstep=4 / ip_ratio=1.30 / pb_ratio=1.20 / aq=4:0.80 / aq-sensitivity=10.00 / aq-factor=1.00:1.00:1.00 / aq2=0 / aq3=0 / zones=53,696,crf=14/2415,2451,crf=14/3185,3190,crf=14/11774,11799
Language : English
Matrix coefficients : BT.709-5, BT.1361, IEC 61966-2-4 709, SMPTE RP177
Audio #1
ID : 2
Format : AC-3
Format/Info : Audio Coding 3
Mode extension : CM (complete main)
Codec ID : A_AC3
Duration : 1h 37mn
Bit rate mode : Constant
Bit rate : 640 Kbps
Channel(s) : 6 channels
Channel positions : Front: L C R, Side: L R, LFE
Sampling rate : 48.0 KHz
Bit depth : 16 bits
Stream size : 446 MiB (5%)
Title : AC3 5.1 @ 640 kbps - DUB, Blu-ray EUR
Language : Russian
Audio #2
ID : 3
Format : AC-3
Format/Info : Audio Coding 3
Mode extension : CM (complete main)
Codec ID : A_AC3
Duration : 1h 37mn
Bit rate mode : Constant
Bit rate : 384 Kbps
Channel(s) : 6 channels
Channel positions : Front: L C R, Side: L R, LFE
Sampling rate : 48.0 KHz
Bit depth : 16 bits
Stream size : 268 MiB (3%)
Title : AC3 5.1 @ 384 kbps - DUB, iTunes
Language : Ukrainian
Audio #3
ID : 4
Format : DTS
Format/Info : Digital Theater Systems
Codec ID : A_DTS
Duration : 1h 37mn
Bit rate mode : Constant
Bit rate : 1 510 Kbps
Channel(s) : 6 channels
Channel positions : Front: L C R, Side: L R, LFE
Sampling rate : 48.0 KHz
Bit depth : 24 bits
Video delay : 11ms
Stream size : 1.03 GiB (13%)
Title : DTS 5.1 @ 1536 kbps
Language : English
Text #1
ID : 5
Format : UTF-8
Codec ID : S_TEXT/UTF8
Codec ID/Info : UTF-8 Plain Text
Title : iTunes
Language : Russian
Text #2
ID : 6
Format : UTF-8
Codec ID : S_TEXT/UTF8
Codec ID/Info : UTF-8 Plain Text
Title : iTunes
Language : English
Text #3
ID : 7
Format : UTF-8
Codec ID : S_TEXT/UTF8
Codec ID/Info : UTF-8 Plain Text
Language : English
Text #4
ID : 8
Format : UTF-8
Codec ID : S_TEXT/UTF8
Codec ID/Info : UTF-8 Plain Text
Title : SDH
Language : English
Text #5
ID : 9
Format : UTF-8
Codec ID : S_TEXT/UTF8
Codec ID/Info : UTF-8 Plain Text
Title : SDH-COLORED
Language : English
Menu
00:00:00.000 : en:Maleficent
00:03:00.597 : en:A Human Thief
00:08:10.949 : en:The Protector Of The Moors
00:14:00.757 : en:Forgiving A Friend
00:19:10.608 : en:The Making Of A King
00:25:59.057 : en:A Crand Celebration
00:33:09.738 : en:Info The woods
00:38:30.808 : en:Stefan Has An Idea
00:43:21.140 : en:Bring Them To Me
00:46:56.105 : en:Goadnight, Beasty
00:51:11.944 : en:Trying To Revoke The Curce
00:54:18.797 : en:I Have A Plan
00:58:37.723 : en:The Boy Is The Answer
01:01:58.048 : en:Aurora Learns The Truth
01:05:09.989 : en:The Curse Is Fulfilled
01:09:56.776 : en:True Love Doesg't Fall From Trees
01:15:40.619 : en:Hello, Beasty
01:17:43.659 : en:Capturing Malefient
01:25:44.931 : en:A New Queen
01:28:38.647 : en:End Credits

Скриншоты, Source (filtered) vs VietHD

[Профиль] [ЛС]
Кто просматривает тему:

Форум Тема Автор Размер
Фильмы (HD DVD, Blu-ray и BDRemux) Малефисента / Maleficent (2014) BDRip 1080p от MediaClub | Лицензия sergej644 11.78 GB
Фильмы (HD Rips | 720p, 1080p) Малефисента / Maleficent (2014) BDRip 1080p от R.G. HD-Films | 60 fps sergej644 7.94 GB
Фильмы (HD Rips | 720p, 1080p) Малефисента / Maleficent (2014) BDRip 720p | ATV | D | Лицензия sergej644 3.9 GB
Фильмы (HD Rips | 720p, 1080p) Малефисента / Maleficent (2014) BDRip 720p | D | Лицензия sergej644 3.69 GB
Фильмы (HD Rips | 720p, 1080p) Малефисента / Maleficent (2014) BDRip 720p от Leonardo and Scarabey | Лицензия sergej644 2.97 GB
Фильмы 2014 года Малефисента / Maleficent (2014) BDRip от New-Team | D | лицензия Белочка 1.46 GB
Зарубежные Малефисента 3D / Maleficent 3D (Роберт Стромберг / Robert Stromberg) [2014, США, Великобритания, фэнтези, семейный, мелодрама, приключения, Blu-ray disc 1080p] DUB BD3D CEE TorrentFilm 37.13 GB
Зарубежные Малефисента в 3Д / Maleficent 3D (Роберт Стромберг / Robert Stromberg) [2014, Фэнтези, Семейный, Мелодрама, Приключения, BDrip, 1080p] OverUnder / Вертикальная стереопара TorrentFilm 10.43 GB
Показать сообщения:    

Текущее время: Сегодня 16:41

Часовой пояс: GMT



Вы не можете начинать темы
Вы не можете отвечать на сообщения
Вы не можете редактировать свои сообщения
Вы не можете удалять свои сообщения
Вы не можете голосовать в опросах
Вы не можете прикреплять файлы к сообщениям
Вы не можете скачивать файлы