Малефисента в 3Д / Maleficent 3D (Роберт Стромберг / Robert Stromberg) [2014, Фэнтези, Семейный, Мелодрама, Приключения, BDrip, 1080p] OverUnder / Вертикальная стереопара

 
Автор Сообщение

TorrentFilm ®

Пол:

Стаж: 2 года

Сообщений: 7741



Награды: Нет

Торрент-статистика

Создавать темы 13-Фев-2016 00:00

[Цитировать]

Малефисента / Maleficent
Год выпуска: 2014
Страна: США, Великобритания (Walt Disney Pictures)
Жанр: Фэнтези, Семейный, Мелодрама, Приключения
Продолжительность: 1:37:28
Перевод: Профессиональный (дублированный)
Русские субтитры: нет
Режиссер на русском: Роберт Стромберг / Robert Stromberg
В ролях: Анджелина Джоли, Эль Фаннинг, Шарлто Копли, Сэм Райли, Имелда Стонтон, Джуно Темпл, Лесли Мэнвилл, Брентон Туэйтс, Кеннет Крэнэм, Изобель Молло
Роли озвучивали: Светлана Кузнецова, Мария Якименко, Вадим Романов, Анастасия Фомичева, Александр Койгеров
Описание: Юная волшебница Малефисента вела уединенную жизнь в зачарованном лесу, окруженная сказочными существами, но однажды все изменилось… В её мир вторглись люди, которые принесли с собой разрушение и хаос, и Малефисенте пришлось встать на защиту своих подданных, призвав на помощь могущественные тёмные силы. В пылу борьбы Малефисента наложила страшное заклятие на новорожденную дочь короля, прекрасную Аврору. Но, наблюдая за тем, как растет маленькая принцесса, Малефисента начинает сомневаться в правильности своего поступка — ведь, возможно, именно Аврора может вдохнуть новую жизнь в волшебное лесное царство.
Сэмпл: http://sendfile.su/1024596
Качество: BDrip
Контейнер: MKV
Формат 3D: OverUnder / Вертикальная стереопара
Порядок ракурсов: левый ракурс первый
Видео кодек: x264
Аудио кодек: AC3
Видео: AVC / High@L5.0 / 23,976 fps / 1920х1600 / 13,7 Мбит/сек
Аудио: Русский / AC3 / 48 KHz / 5.1 ch / 640 Кбит/сек
Аудио 2: Английский / AC3 / 48 KHz / 5.1 ch / 640 Кбит/сек
Релиз группы: ВНИМАНИЕ ! На встроенных ТВ-плеерах работать не будет!!!
ТВ Samsung в названии которого есть надпись Ultra HD воспроизводят полные стереопары встроенными плеерами
Железные плееры на которых воспроизводятся полные стереопары:Popcorn C-200 , Dune HD Smart D1 , Dune HD DUO , Dune HD Smart H1 , Dune HD Smart B1 , Dune HD Max , Dune HD TV-303D , Dune HD Base 3D

MediaInfo

Общее
Уникальный идентификатор : 211211026490652036435169188429895066355 (0x9EE5C398CD1B4E8195E5A616616C62F3)
Полное имя : E:\закачки\Maleficent.Rip by SeRoGa00.mkv
Формат : Matroska
Версия формата : Version 2
Размер файла : 10,4 Гбайт
Продолжительность : 1 ч. 37 м.
Общий поток : 15,3 Мбит/сек
Дата кодирования : UTC 2014-09-19 12:33:32
Программа кодирования : mkvmerge v3.4.0 ('Rapunzel') сборка от May 15 2010 09:38:20
Библиотека кодирования : libebml v0.8.0 + libmatroska v0.9.0
Видео
Идентификатор : 1
Формат : AVC
Формат/Информация : Advanced Video Codec
Профиль формата : High@L5.0
Параметр CABAC формата : Да
Параметр ReFrames формата : 4 кадра
Идентификатор кодека : V_MPEG4/ISO/AVC
Продолжительность : 1 ч. 37 м.
Битрейт : 13,7 Мбит/сек
Ширина : 1920 пикселей
Высота : 1600 пикселей
Соотношение сторон : 1,200
Частота кадров : 23,976 кадра/сек
Цветовое пространство : YUV
Субдискретизация насыщенности : 4:2:0
Битовая глубина : 8 бит
Тип развёртки : Прогрессивная
Бит/(Пиксели*Кадры) : 0.186
Размер потока : 9,35 Гбайт (90%)
Заголовок : Rip by SeRoGa00
Библиотека кодирования : x264 core 142 r2431 ac76440
Настройки программы : cabac=1 / ref=4 / deblock=1:-3:-3 / analyse=0x3:0x113 / me=umh / subme=9 / psy=1 / psy_rd=1.00:0.15 / mixed_ref=1 / me_range=24 / chroma_me=1 / trellis=2 / 8x8dct=1 / cqm=0 / deadzone=21,11 / fast_pskip=1 / chroma_qp_offset=-3 / threads=9 / lookahead_threads=1 / sliced_threads=0 / nr=0 / decimate=1 / interlaced=0 / bluray_compat=0 / constrained_intra=0 / bframes=8 / b_pyramid=2 / b_adapt=2 / b_bias=0 / direct=3 / weightb=1 / open_gop=0 / weightp=2 / keyint=250 / keyint_min=23 / scenecut=40 / intra_refresh=0 / rc_lookahead=60 / rc=crf / mbtree=1 / crf=18.0 / qcomp=0.60 / qpmin=10 / qpmax=69 / qpstep=4 / vbv_maxrate=40000 / vbv_bufsize=40000 / crf_max=0.0 / nal_hrd=none / filler=0 / ip_ratio=1.40 / aq=1:1.00
Язык : English
Аудио #1
Идентификатор : 2
Формат : AC-3
Формат/Информация : Audio Coding 3
Расширение режима : CM (complete main)
Идентификатор кодека : A_AC3
Продолжительность : 1 ч. 37 м.
Вид битрейта : Постоянный
Битрейт : 640 Кбит/сек
Каналы : 6 каналов
Расположение каналов : Front: L C R, Side: L R, LFE
Частота : 48,0 КГц
Битовая глубина : 16 бит
Метод сжатия : С потерями
Размер потока : 446 Мбайт (4%)
Язык : Russian
Аудио #2
Идентификатор : 3
Формат : AC-3
Формат/Информация : Audio Coding 3
Расширение режима : CM (complete main)
Идентификатор кодека : A_AC3
Продолжительность : 1 ч. 37 м.
Вид битрейта : Постоянный
Битрейт : 640 Кбит/сек
Каналы : 6 каналов
Расположение каналов : Front: L C R, Side: L R, LFE
Частота : 48,0 КГц
Битовая глубина : 16 бит
Метод сжатия : С потерями
Размер потока : 446 Мбайт (4%)
Язык : English

Скриншоты


[Профиль] [ЛС]
Кто просматривает тему:

Форум Тема Автор Размер
Фильмы (HD DVD, Blu-ray и BDRemux) Малефисента / Maleficent (2014) BDRip 1080p от MediaClub | Лицензия sergej644 11.78 GB
Фильмы (HD Rips | 720p, 1080p) Малефисента / Maleficent (2014) BDRip 1080p от R.G. HD-Films | 60 fps sergej644 7.94 GB
Фильмы (HD Rips | 720p, 1080p) Малефисента / Maleficent (2014) BDRip 720p | ATV | D | Лицензия sergej644 3.9 GB
Фильмы (HD Rips | 720p, 1080p) Малефисента / Maleficent (2014) BDRip 720p | D | Лицензия sergej644 3.69 GB
Фильмы (HD Rips | 720p, 1080p) Малефисента / Maleficent (2014) BDRip 720p от Leonardo and Scarabey | Лицензия sergej644 2.97 GB
Фильмы 2014 года Малефисента / Maleficent (2014) BDRip от New-Team | D | лицензия Белочка 1.46 GB
Зарубежные Малефисента 3D / Maleficent 3D (Роберт Стромберг / Robert Stromberg) [2014, США, Великобритания, фэнтези, семейный, мелодрама, приключения, Blu-ray disc 1080p] DUB BD3D CEE TorrentFilm 37.13 GB
Зарубежные Малефисента в 3Д / Maleficent 3D (Роберт Стромберг / Robert Stromberg) [2014, фэнтези, семейный, мелодрама, приключения, BDRip-AVC] Half SideBySide / Горизонтальная анаморфная стереопара TorrentFilm 8.05 GB
Показать сообщения:    

Текущее время: Сегодня 08:03

Часовой пояс: GMT



Вы не можете начинать темы
Вы не можете отвечать на сообщения
Вы не можете редактировать свои сообщения
Вы не можете удалять свои сообщения
Вы не можете голосовать в опросах
Вы не можете прикреплять файлы к сообщениям
Вы не можете скачивать файлы