Маленькое зло / Little Evil (2017) WEBRip 720p | L

 
Автор Сообщение

BOSS ®

Пол:

Стаж: 3 года 2 месяца

Сообщений: 8627

Откуда: ODESSA



Награды: 22 (Подробнее)

Top Releaser 5 (Количество: 1) Top Seeder 3 (Количество: 1) Top Releaser 4 (Количество: 1)
Торрент-статистика

Создавать темы 09-Окт-2017 16:44

[Цитировать]

Информация о фильме
Наименование: Маленькое зло
Оригинальное наименование: Little Evil
Произведено: США
Категория: комедия, ужасы
Режиссер постановщик: Илай Крэйг
В главных ролях: Адам Скотт, Эванджелин Лилли, Оуэн Атлас, Бриджет Эверетт, Клэнси Браун, Тайлер Лабин, Дональд Фэйсон, Крис Д Елия, Кайл Борнхаймер, Ким Эванс
О фильме:
Гари женится на женщине своей мечты — красавице Саманте. Она тоже считает любимого идеальным мужем и потенциальным отцом для пятилетнего сына Лукаса. Только вот сам мальчик так не считает. Он не разговаривает с отчимом и вообще ведёт себя странно — смотрит волком, не дружит с другими детьми, и вокруг него постоянно происходят несчастные случаи. Гари даже пошёл на коллективную терапию, где отчимы делятся своими проблемами и жалуются на маленьких дьяволят, но проблема Гари куда серьёзней: его пасынок — сам Антихрист.

Файл
Качество: WEBRip 720p
Видео данные: MKV, 1280x536 (2.40:1), 23.976 fps, 4000 Кбит/с
Аудио данные: Русский (MP3, 2 ch, 320 Кбит/с)
Перевод: Любительский многоголосый (GreenРай Studio)
Продолжительность: 01:35:50

Mediainfo

General
Unique ID : 208213373687810426049960849220515298384 (0x9CA46FE724CF7BABA280F0E139EA7C50)
Complete name : D:Рабочий столLittle.Evil.2017.P.WEB-DL.720p.mkv
Format : Matroska
Format version : Version 4 / Version 2
File size : 2.79 GiB
Duration : 1 h 35 min
Overall bit rate mode : Constant
Overall bit rate : 4 189 kb/s
Encoded date : UTC 2017-10-08 16:34:00
Writing application : mkvmerge v8.3.0 ('Over the Horizon') 64bit
Writing library : libebml v1.3.1 + libmatroska v1.4.2
Video
ID : 1
Format : AVC
Format/Info : Advanced Video Codec
Format profile : Main@L3.1
Format settings, CABAC : Yes
Format settings, ReFrames : 3 frames
Codec ID : V_MPEG4/ISO/AVC
Duration : 1 h 35 min
Bit rate mode : Constant
Bit rate : 4 000 kb/s
Width : 1 280 pixels
Height : 536 pixels
Display aspect ratio : 2.40:1
Frame rate mode : Constant
Frame rate : 23.976 (23976/1000) FPS
Standard : NTSC
Color space : YUV
Chroma subsampling : 4:2:0
Bit depth : 8 bits
Scan type : Progressive
Bits/(Pixel*Frame) : 0.243
Stream size : 2.58 GiB (92%)
Language : English
Default : Yes
Forced : No
Color range : Limited
Audio
ID : 2
Format : MPEG Audio
Format version : Version 1
Format profile : Layer 3
Mode : Joint stereo
Codec ID : A_MPEG/L3
Codec ID/Hint : MP3
Duration : 1 h 35 min
Bit rate mode : Constant
Bit rate : 320 kb/s
Channel(s) : 2 channels
Sampling rate : 48.0 kHz
Frame rate : 41.667 FPS (1152 spf)
Compression mode : Lossy
Stream size : 218 MiB (8%)
Default : Yes
Forced : No
ВНИМАНИЕ! Присутствует реклама!

Скриншоты

Релиз от:
[Профиль] [ЛС]
Кто просматривает тему:

Форум Тема Автор Размер
Nat Geo Wild Nat Geo Wild: Маленькие убийцы / Little Killers (Фил Коулз / Phil Coles) [2015 г., Документальный, научно-популярный, HDTVRip-AVC 720p] skorpionN 1.6 GB
Viasat Nature Viasat Nature: Новая дикая природа. Могучие силы природы на маленьком островке земли / De nieuwe wildernis. Grote natuur in een klein land [эпизоды 1-3 из 3] (Ruben Smit, Марк Веркер) [20... skorpionN 2.07 GB
Фильмы (DVD 5/9) Александр маленький (Владимир Фокин) [1981, СССР, военная драма, DVD5] TorrentFilm 4.28 GB
Фантастика и фэнтези Баштовая Ксения, Иванова Виктория – Тёмный принц 02. Маленьких все обидеть норовят! (2015) MP3 Swager 876 MB
Отечественные мультфильмы Большая Козява и Маленькая Козявка (Дмитрий Шестопалов) [2014, мультфильм, DVDScreener] TorrentFilm 61 MB
Отечественные мультфильмы Большой и Маленький (Музраб Баймухамедов) [1981, Кукольный мультфильм, VHSRip] TorrentFilm 154 MB
Фильмы до 2000 года Большой переполох в маленьком Китае / Big Trouble in Little China (Джон Карпентер) [1986 г., фэнтези, боевик, комедия, приключения, BDRip-AVC] [DUB] Bathory 746 MB
Зарубежные Вики, маленький викинг 2 в 3Д / Wickie auf großer Fahrt / Wickie and the Treasure of the Gods 3D (Кристиан Диттер / Christian Ditter) [2011, Приключения, комедия, боевик, BDremux, 1080p] BD3D TorrentFilm 22.38 GB
Показать сообщения:    

Текущее время: Сегодня 05:04

Часовой пояс: GMT



Вы не можете начинать темы
Вы не можете отвечать на сообщения
Вы не можете редактировать свои сообщения
Вы не можете удалять свои сообщения
Вы не можете голосовать в опросах
Вы не можете прикреплять файлы к сообщениям
Вы не можете скачивать файлы