Маленький мир / Small world / Je n\'ai rien oublie (Брюно Шиш / Bruno Chiche) [2010, Франция, Германия, драма, HDRip] Sub Rus (Playball) + Original Fre

 
Автор Сообщение

TorrentFilm ®

Пол:

Стаж: 1 год 11 месяцев

Сообщений: 7741



Награды: Нет

Торрент-статистика

Создавать темы 05-Сен-2015 00:11

[Цитировать]

Маленький мир / Small world / Je n'ai rien oublie
Страна: Франция, Германия
Жанр: драма
Год выпуска: 2010
Продолжительность: 01:38:30
Перевод: Субтитры - Playball
Cубтитры: русские
Оригинальная аудиодорожка: французский

Режиссер: Брюно Шиш / Bruno Chiche
В ролях: Жерар Депардье, Александра Мария Лара, Франсуаза Фабиан, Нильс Ареструп, Натали Бай, Янник Ренье, Оливье Клавери, Паскаль Арбийо, Анн Бенуа
Описание: Конрад Ланг, помощник богатой семьи, рос и воспитывался вместе с сыном хозяев - Тома. Загородный дом, за которым ему поручено было следить, сгорает в результате несчастного случая, и Конрад вынужден вернуться обратно к себе. Его появление приходится на момент свадьбы сына Тома - Филиппа на молодой девушке Симоне. Конрад страдает провалами в памяти в результате прогрессирующей болезни Альцгеймера. Недавнее прошлое стирается из памяти, но на смену ему приходят счастливые моменты детства. Однако не все члены семьи хотят возвращаться к темным событиям минувших дней.
Качество видео: HDRip
Формат видео: AVI
Видео: 720x304 (2.37:1), 24 fps, XviD build 73 ~1659 kbps avg, 0.32 bit/pixel
Аудио: 48 kHz, AC3 Dolby Digital, 3/2 (L,C,R,l,r) + LFE ch, ~448 kbps

Фрагмент субтитров

683
01:05:27,221 --> 01:05:29,311
Мама Анна и мама Эльвира.
684
01:05:29,487 --> 01:05:30,714
Это мы в Венеции.
685
01:05:32,221 --> 01:05:33,652
Вы уверены, что это Венеция?
686
01:05:34,221 --> 01:05:36,482
Ну я уж не совсем склеротик!
687
01:05:37,554 --> 01:05:40,212
Разве не узнаешь
Площадь Св. Марка?
688
01:05:40,387 --> 01:05:42,081
Спроси Тома.
689
01:05:42,254 --> 01:05:44,481
Он не помнит этой поездки.
690
01:05:44,654 --> 01:05:47,745
Котелок у него стал хуже варить.
Возраст все-таки.
691
01:05:48,654 --> 01:05:49,483
Взгляни.
692
01:05:50,887 --> 01:05:51,545
Вот.
693
01:05:53,820 --> 01:05:55,251
Сколько вам здесь?
694
01:05:55,420 --> 01:05:57,578
Три? Четыре?
695
01:05:58,487 --> 01:06:00,715
Ты как спросишь!
696
01:06:02,820 --> 01:06:04,479
Это было долгое путешествие.
697
01:06:04,653 --> 01:06:08,483
Сначала на корабле,
потом на поезде.
698
01:06:09,053 --> 01:06:11,883
И в Венеции мы пробыли долго.

MediaInfo

Общее
Полное имя : H:\Je.n'ai.rien.oublie.2010.hdrip_[1.46]_[teko]\Je.n'ai.rien.oublie.2010.hdrip_[1.46].avi
Формат : AVI
Формат/Информация : Audio Video Interleave
Размер файла : 1,46 Гбайт
Продолжительность : 1 ч. 38 м.
Общий поток : 2117 Кбит/сек
Программа кодирования : VirtualDubMod 1.5.10.3 | www.virtualdub-fr.org || (build 2550/release)
Библиотека кодирования : VirtualDubMod build 2550/release
Видео
Идентификатор : 0
Формат : MPEG-4 Visual
Профиль формата : Advanced Simple@L5
Параметр BVOP формата : 1
Параметр QPel формата : Нет
Параметр GMC формата : Без точки перехода
Параметр матрицы формата : Выборочная
Идентификатор кодека : XVID
Идентификатор кодека/Подсказка : XviD
Продолжительность : 1 ч. 38 м.
Битрейт : 1660 Кбит/сек
Ширина : 720 пикселей
Высота : 304 пикселя
Соотношение сторон : 2,35:1
Частота кадров : 24,000 кадра/сек
Цветовое пространство : YUV
Субдискретизация насыщенности : 4:2:0
Битовая глубина : 8 бит
Тип развёртки : Прогрессивная
Метод сжатия : С потерями
Бит/(Пиксели*Кадры) : 0.316
Размер потока : 1,14 Гбайт (78%)
Библиотека кодирования : XviD 73
Аудио
Идентификатор : 1
Формат : AC-3
Формат/Информация : Audio Coding 3
Расширение режима : CM (complete main)
Параметр Endianness формата : Big
Идентификатор кодека : 2000
Продолжительность : 1 ч. 38 м.
Вид битрейта : Постоянный
Битрейт : 448 Кбит/сек
Каналы : 6 каналов
Расположение каналов : Front: L C R, Side: L R, LFE
Частота : 48,0 КГц
Битовая глубина : 16 бит
Метод сжатия : С потерями
Размер потока : 316 Мбайт (21%)
Выравнивание : Разделение по промежуткам
Продолжительность промежутка : 42 мс. (1,00 видеокадр)
Время предзагрузки промежутка : 500 мс.
Релиз группы:
--
[Профиль] [ЛС]

Создавать темы 12-Июн-2016 07:53 (спустя 9 месяцев 7 дней)

Топик был перенесен из форума Фильмы 2011 года в форум Фильмы 2010 года
Russian Mafia
 
Кто просматривает тему:

Форум Тема Автор Размер
Viasat Nature Viasat Nature: Новая дикая природа. Могучие силы природы на маленьком островке земли / De nieuwe wildernis. Grote natuur in een klein land [эпизоды 1-3 из 3] (Ruben Smit, Марк Веркер) [20... skorpionN 2.07 GB
Фильмы (DVD 5/9) Александр маленький (Владимир Фокин) [1981, СССР, военная драма, DVD5] TorrentFilm 4.28 GB
Фантастика и фэнтези Баштовая Ксения, Иванова Виктория – Тёмный принц 02. Маленьких все обидеть норовят! (2015) MP3 Swager 876 MB
Отечественные мультфильмы Большая Козява и Маленькая Козявка (Дмитрий Шестопалов) [2014, мультфильм, DVDScreener] TorrentFilm 61 MB
Отечественные мультфильмы Большой и Маленький (Музраб Баймухамедов) [1981, Кукольный мультфильм, VHSRip] TorrentFilm 154 MB
Зарубежные Вики, маленький викинг 2 в 3Д / Wickie auf großer Fahrt / Wickie and the Treasure of the Gods 3D (Кристиан Диттер / Christian Ditter) [2011, Приключения, комедия, боевик, BDremux, 1080p] BD3D TorrentFilm 22.38 GB
Зарубежные Вики, маленький викинг 2 в 3Д / Wickie auf großer Fahrt / Wickie and the Treasure of the Gods 3D (Кристиан Диттер / Christian Ditter) [2011, Приключения, Комедия, Боевик, Семейный, BDrip-AVC]... TorrentFilm 10.88 GB
Зарубежные мультсериалы Гравити Фолз. Маленькие истории / Gravity Falls. Shorts [01-17 из 17] (2013-2014) WEBRip 1080p | D BOSS 827 MB
Показать сообщения:    

Текущее время: Сегодня 14:00

Часовой пояс: GMT



Вы не можете начинать темы
Вы не можете отвечать на сообщения
Вы не можете редактировать свои сообщения
Вы не можете удалять свои сообщения
Вы не можете голосовать в опросах
Вы не можете прикреплять файлы к сообщениям
Вы не можете скачивать файлы