Маленький воробей, который не умел летать (Леон Эстрин) [2002, Россия, мультфильм, WEBRip]

 
Автор Сообщение

TorrentFilm ®

Пол:

Стаж: 2 года 6 месяцев

Сообщений: 7773



Награды: Нет

Торрент-статистика

Создавать темы 26-Ноя-2015 00:09

[Цитировать]

Маленький воробей, который не умел летать
Страна: Россия
Жанр: мультфильм
Продолжительность: 00:06:17
Год выпуска: 2002
Режиссёр: Леон Эстрин
Музыка: группа "Mervent"
Описание: Про маленького воробья, который не умел летать, но умел танцевать.
Качество: WEBRip
Формат: AVI
Видео: 710 kbps, 608х464 (4:3), 25.000 fps, MPEG-4 Visual
Аудио: 128 kbps, 44.1 kHz, 2 channels, AC-3
Субтитры: отсутствуют

Подробные технические данные

GeneralComplete name : Маленький воробей (2002).aviFormat : AVIFormat/Info : Audio Video InterleaveFile size : 38.2 MiBDuration : 6mn 17sOverall bit rate : 848 KbpsWriting application : Lavf55.33.100
VideoID : 0Format : MPEG-4 VisualFormat profile : Simple@L1Format settings, BVOP : NoFormat settings, QPel : NoFormat settings, GMC : No warppointsFormat settings, Matrix : Default (H.263)Codec ID : FMP4Duration : 6mn 17sBit rate : 710 KbpsWidth : 608 pixelsHeight : 464 pixelsDisplay aspect ratio : 4:3Frame rate : 25.000 fpsColor space : YUVChroma subsampling : 4:2:0Bit depth : 8 bitsScan type : ProgressiveCompression mode : LossyBits/(Pixel*Frame) : 0.101Stream size : 31.9 MiB (84%)Writing library : Lavc55.52.102
AudioID : 1Format : AC-3Format/Info : Audio Coding 3Mode extension : CM (complete main)Format settings, Endianness : BigCodec ID : 2000Duration : 6mn 17sBit rate mode : ConstantBit rate : 128 KbpsChannel(s) : 2 channelsChannel positions : Front: L RSampling rate : 44.1 KHzBit depth : 16 bitsCompression mode : LossyStream size : 5.76 MiB (15%)Alignment : Aligned on interleavesInterleave, duration : 35 ms (0.87 video frame)

Скриншоты

[Профиль] [ЛС]
Кто просматривает тему:

Показать сообщения:    

Текущее время: Сегодня 12:25

Часовой пояс: GMT



Вы не можете начинать темы
Вы не можете отвечать на сообщения
Вы не можете редактировать свои сообщения
Вы не можете удалять свои сообщения
Вы не можете голосовать в опросах
Вы не можете прикреплять файлы к сообщениям
Вы не можете скачивать файлы