Маленькая страна / Paisito / Small Country (Ана Диес / Ana Diez) [2008, Аргентина, Испания, Уругвай, Драма, DVDRip] VO + Sub Rus + Original Spa

 
Автор Сообщение

TorrentFilm ®

Пол:

Стаж: 2 года

Сообщений: 7741



Награды: Нет

Торрент-статистика

Создавать темы 04-Мар-2016 00:08

[Цитировать]

Маленькая страна / Paisito / Small Country
Страна: Аргентина, Испания, Уругвай
Жанр: Драма
Год выпуска: 2008
Продолжительность: 01.23.51
Перевод: Одноголосый закадровый
Cубтитры: русские
Оригинальная аудиодорожка: испанский
Режиссер: Ана Диес / Ana Diez
В ролях: Маурисио Даюб - Роберто Севернини
Эмилио Гутиеррес Каба - Мануэль
Вивиана Саксоне - Ана Севернини
Мариа Ботто - Росана взрослая
Николас Паулс - Ксави взрослый
Пиа Родригес - Росана в детстве
Пабло Арнолетти - Ксави в детстве
Хорхе Болани - Морейра
Описание: Действие фильма происходит в Уругвае 1973 года. В стране нарастает политический хаос, нагнетаемый леворадикальным движением Тупомарос. Стремясь не дать ситуации скатиться к революции, военные устраивают переворот, и устанавливают диктатуру хунты генералов. 11-летний Ксави пообещал своей соседке и подружке Росане, никогда с ней не расставаться. Но жизнь распорядилась по-своему. Погибает отец Росаны шеф полиции Монтевидео Роберто Севернини и семья переезжает на новое место. Ксави становится профессиональным футболистом и уезжает в Европу. Росана и Ксави вновь встречаются через 20 лет и пытаются понять, почему они расстались. Почему им пришлось в детстве пережить боль потери и предательства.
Доп. информация: Фильм взят отсюда http://torrentfilm.net/forum/viewtopic.php?t=3867401
Сэмпл: http://multi-up.com/1091509
Качество видео: DVDRip
Формат видео: AVI
Видео: 608x352 (1.73:1), 29.970 fps, XviD MPEG-4 ~1028 kbps avg, 0.16 bit/pixel
Аудио 1: 44.100 kHz, MPEG Layer 3, 2 ch, ~127.70 kbps avg(Русский)
Аудио 2: 44.100 kHz, MPEG Layer 3, 2 ch, ~128.00 kbps avg(Испанский)
Формат субтитров: softsub (SRT)
Доп. информация о субтитрах: Русские внешние (jojag)

MediaInfo

Общее
Полное имя : F:\С моей озвучкой\Маленькая страна\Paisito.avi
Формат : AVI
Формат/Информация : Audio Video Interleave
Размер файла : 781 Мбайт
Продолжительность : 1 ч. 23 м.
Общий поток : 1302 Кбит/сек
Программа кодирования : VirtualDubModRus 1.5.10.2 (build 2542/release)
Библиотека кодирования : VirtualDubMod build 2542/release
Видео
Идентификатор : 0
Формат : MPEG-4 Visual
Профиль формата : Advanced Simple@L5
Параметр BVOP формата : 1
Параметр QPel формата : Нет
Параметр GMC формата : Без точки перехода
Параметр матрицы формата : Default (H.263)
Режим смешивания : Сжатый битовый поток
Идентификатор кодека : XVID
Идентификатор кодека/Подсказка : XviD
Продолжительность : 1 ч. 23 м.
Битрейт : 1029 Кбит/сек
Ширина : 608 пикселей
Высота : 352 пикселя
Соотношение сторон : 4:3
Соотношение сторон в оригинале : 1,727
Частота кадров : 29,970 кадров/сек
Цветовое пространство : YUV
Субдискретизация насыщенности : 4:2:0
Битовая глубина : 8 бит
Тип развёртки : Прогрессивная
Метод сжатия : С потерями
Бит/(Пиксели*Кадры) : 0.160
Размер потока : 617 Мбайт (79%)
Библиотека кодирования : XviD 1.2.1 (UTC 2008-12-04)
Аудио #1
Идентификатор : 1
Формат : MPEG Audio
Версия формата : Version 1
Профиль формата : Layer 3
Режим : Joint stereo
Расширение режима : MS Stereo
Идентификатор кодека : 55
Идентификатор кодека/Подсказка : MP3
Продолжительность : 1 ч. 23 м.
Вид битрейта : Постоянный
Битрейт : 128 Кбит/сек
Каналы : 2 канала
Частота : 44,1 КГц
Метод сжатия : С потерями
Размер потока : 76,5 Мбайт (10%)
Выравнивание : Соединение по промежуткам
Продолжительность промежутка : 33 мс. (1,00 видеокадр)
Время предзагрузки промежутка : 522 мс.
Библиотека кодирования : LAME3.96
Аудио #2
Идентификатор : 2
Формат : MPEG Audio
Версия формата : Version 1
Профиль формата : Layer 3
Режим : Joint stereo
Идентификатор кодека : 55
Идентификатор кодека/Подсказка : MP3
Продолжительность : 1 ч. 23 м.
Вид битрейта : Постоянный
Битрейт : 128 Кбит/сек
Каналы : 2 канала
Частота : 44,1 КГц
Метод сжатия : С потерями
Размер потока : 76,8 Мбайт (10%)
Выравнивание : Разделение по промежуткам
Продолжительность промежутка : 33 мс. (1,00 видеокадр)
Время предзагрузки промежутка : 500 мс.

Скриншоты

[Профиль] [ЛС]

Создавать темы 12-Июн-2016 08:50 (спустя 3 месяца 8 дней)

Топик был перенесен из форума Фильмы 2011 года в форум Фильмы 2006-2008 года
Russian Mafia
 
Кто просматривает тему:

Форум Тема Автор Размер
Viasat Nature Viasat Nature: Новая дикая природа. Могучие силы природы на маленьком островке земли / De nieuwe wildernis. Grote natuur in een klein land [эпизоды 1-3 из 3] (Ruben Smit, Марк Веркер) [20... skorpionN 2.07 GB
Фильмы (DVD 5/9) Александр маленький (Владимир Фокин) [1981, СССР, военная драма, DVD5] TorrentFilm 4.28 GB
Фантастика и фэнтези Баштовая Ксения, Иванова Виктория – Тёмный принц 02. Маленьких все обидеть норовят! (2015) MP3 Swager 876 MB
Отечественные мультфильмы Большая Козява и Маленькая Козявка (Дмитрий Шестопалов) [2014, мультфильм, DVDScreener] TorrentFilm 61 MB
Отечественные мультфильмы Большой и Маленький (Музраб Баймухамедов) [1981, Кукольный мультфильм, VHSRip] TorrentFilm 154 MB
Зарубежные Вики, маленький викинг 2 в 3Д / Wickie auf großer Fahrt / Wickie and the Treasure of the Gods 3D (Кристиан Диттер / Christian Ditter) [2011, Приключения, комедия, боевик, BDremux, 1080p] BD3D TorrentFilm 22.38 GB
Зарубежные Вики, маленький викинг 2 в 3Д / Wickie auf großer Fahrt / Wickie and the Treasure of the Gods 3D (Кристиан Диттер / Christian Ditter) [2011, Приключения, Комедия, Боевик, Семейный, BDrip-AVC]... TorrentFilm 10.88 GB
Зарубежные мультсериалы Гравити Фолз. Маленькие истории / Gravity Falls. Shorts [01-17 из 17] (2013-2014) WEBRip 1080p | D BOSS 827 MB
Показать сообщения:    

Текущее время: Сегодня 12:32

Часовой пояс: GMT



Вы не можете начинать темы
Вы не можете отвечать на сообщения
Вы не можете редактировать свои сообщения
Вы не можете удалять свои сообщения
Вы не можете голосовать в опросах
Вы не можете прикреплять файлы к сообщениям
Вы не можете скачивать файлы