Маленькая мисс Счастье / Little Miss Sunshine (Джонатан Дэйтон, Валери Фарис / Jonathan Dayton, Valerie Faris) [2006, США, трагикомедия, BDRip] MVO (с Первого канала)

 
Автор Сообщение

TorrentFilm ®

Пол:

Стаж: 1 год 11 месяцев

Сообщений: 7741



Награды: Нет

Торрент-статистика

Создавать темы 03-Мар-2015 00:01

[Цитировать]

Маленькая мисс Счастье
Little Miss Sunshine

Страна: США
Жанр: трагикомедия
Год выпуска: 2006
Продолжительность: 01:42:34-Перевод: Профессиональный (многоголосый закадровый)
с Первого канала

Cубтитры: нет
Оригинальная аудиодорожка: нет-Режиссер: Джонатан Дэйтон, Валери Фарис / Jonathan Dayton, Valerie Faris
В ролях: Пол Дано, Тони Коллетт, Грег Киннер, Стив Карелл, Алан Аркин, Эбигейл Бреслин, Дин Норрис, Джофф Мид, Мэтт Уинстон, Мэри Линн Райскаб-Описание: Странная американская семейка отправляется через всю Америку в Калифорнию, чтобы обаятельная девочка Олив могла поучаствовать в конкурсе «Маленькая мисс Счастье». Она — самый маленький и самый неуклюжий член семейства Гуверов, но все они — мать, отец, брат, дедушка и дядя — очень хотят, чтобы Олив осуществила свою мечту. Правда, родня девочки так обременена собственными проблемами, причудами и неврозами, что едва ли могут помочь юной героине-Доп. информация:
О переводе: Перевод на трекере появляется впервые
Качество: цифровой эфир (Первый канал)
Синхронизация: mister55555-Сэмпл: минута51сек-Качество видео: BDRip (спасибо garin200 с кинозала)
Формат видео: AVI
Видео: XVID, 720x304, 2,35:1, 23,976 кадра/сек, 1869 Кбит/сек
Аудио: AC-3, 48,0 КГц, 192 Кбит/сек, 2 канала (многоголосый с Первого канала)

MediaInfo

Общее
Полное имя : D:\с диска Е\инет\Раздачи\Маленькая мисс счастье.2006.BDRip\Маленькая мисс счастье.2006.BDRip.avi
Формат : AVI
Формат/Информация : Audio Video Interleave
Размер файла : 1,48 Гбайт
Продолжительность : 1 ч. 42 м.
Общий поток : 2070 Кбит/сек
Дата записи : 01.03.2015
Программа кодирования : VirtualDubModRus 1.5.10.2 (build 2542/release)
Библиотека кодирования : VirtualDubMod build 2542/release
Правообладатель : mister55555
Примечание : для torrentfilm.net
Видео
Идентификатор : 0
Формат : MPEG-4 Visual
Профиль формата : Advanced Simple@L5
Параметр BVOP формата : 1
Параметр QPel формата : Нет
Параметр GMC формата : Без точки перехода
Параметр матрицы формата : Выборочная
Идентификатор кодека : XVID
Идентификатор кодека/Подсказка : XviD
Продолжительность : 1 ч. 42 м.
Битрейт : 1869 Кбит/сек
Ширина : 720 пикселей
Высота : 304 пикселя
Соотношение сторон : 2,35:1
Частота кадров : 23,976 кадра/сек
Цветовое пространство : YUV
Субдискретизация насыщенности : 4:2:0
Битовая глубина : 8 бит
Тип развёртки : Прогрессивная
Метод сжатия : С потерями
Бит/(Пиксели*Кадры) : 0.356
Размер потока : 1,34 Гбайт (90%)
Библиотека кодирования : XviD 73
Аудио
Идентификатор : 1
Формат : AC-3
Формат/Информация : Audio Coding 3
Расширение режима : CM (complete main)
Параметр Endianness формата : Big
Идентификатор кодека : 2000
Продолжительность : 1 ч. 42 м.
Вид битрейта : Постоянный
Битрейт : 192 Кбит/сек
Каналы : 2 канала
Расположение каналов : Front: L R
Частота : 48,0 КГц
Битовая глубина : 16 бит
Метод сжатия : С потерями
Размер потока : 141 Мбайт (9%)
Выравнивание : Разделение по промежуткам
Продолжительность промежутка : 42 мс. (1,00 видеокадр)
Время предзагрузки промежутка : 500 мс.
Заголовок : многоголосый с 1 канала

Скриншот c названием фильма

[Профиль] [ЛС]

Создавать темы 06-Авг-2015 22:42 (спустя 5 месяцев 3 дня)

Топик был перенесен из форума Фильмы до 2014 года в форум Фильмы до 2012 года
sergej644
 
Кто просматривает тему:

Форум Тема Автор Размер
Viasat Nature Viasat Nature: Новая дикая природа. Могучие силы природы на маленьком островке земли / De nieuwe wildernis. Grote natuur in een klein land [эпизоды 1-3 из 3] (Ruben Smit, Марк Веркер) [20... skorpionN 2.07 GB
Фильмы (DVD 5/9) Александр маленький (Владимир Фокин) [1981, СССР, военная драма, DVD5] TorrentFilm 4.28 GB
Фантастика и фэнтези Баштовая Ксения, Иванова Виктория – Тёмный принц 02. Маленьких все обидеть норовят! (2015) MP3 Swager 876 MB
Отечественные мультфильмы Большая Козява и Маленькая Козявка (Дмитрий Шестопалов) [2014, мультфильм, DVDScreener] TorrentFilm 61 MB
Отечественные мультфильмы Большой и Маленький (Музраб Баймухамедов) [1981, Кукольный мультфильм, VHSRip] TorrentFilm 154 MB
Зарубежные Вики, маленький викинг 2 в 3Д / Wickie auf großer Fahrt / Wickie and the Treasure of the Gods 3D (Кристиан Диттер / Christian Ditter) [2011, Приключения, комедия, боевик, BDremux, 1080p] BD3D TorrentFilm 22.38 GB
Зарубежные Вики, маленький викинг 2 в 3Д / Wickie auf großer Fahrt / Wickie and the Treasure of the Gods 3D (Кристиан Диттер / Christian Ditter) [2011, Приключения, Комедия, Боевик, Семейный, BDrip-AVC]... TorrentFilm 10.88 GB
Зарубежные мультсериалы Гравити Фолз. Маленькие истории / Gravity Falls. Shorts [01-17 из 17] (2013-2014) WEBRip 1080p | D BOSS 827 MB
Показать сообщения:    

Текущее время: Сегодня 00:36

Часовой пояс: GMT



Вы не можете начинать темы
Вы не можете отвечать на сообщения
Вы не можете редактировать свои сообщения
Вы не можете удалять свои сообщения
Вы не можете голосовать в опросах
Вы не можете прикреплять файлы к сообщениям
Вы не можете скачивать файлы