Маленькая жизнь / Маленьке життя (Александр Жовна / Alexander Zhovna) [2008, Украина, драма, детский, биография, DVDRip] VO + Sub Rus + Original Ukr

 
Автор Сообщение

TorrentFilm ®

Пол:

Стаж: 2 года

Сообщений: 7741



Награды: Нет

Торрент-статистика

Создавать темы 17-Мар-2016 00:08

[Цитировать]

Маленькая жизнь / Маленьке життя
Страна: Украина
Жанр: драма, детский, биография
Год выпуска: 2008
Продолжительность: 00:58:22
Перевод: Одноголосый закадровый
Cубтитры: русские
Оригинальная аудиодорожка: украинский
Режиссер: Александр Жовна / Alexander Zhovna
В ролях: Кирилл Сосницкий, Игорь Божко, Василий Яковиц, Борис Лунёв, Михаио Горносталь, Александр Жовна, Мария Кротик, Наталия Жовна, Галина Кобзарь-Слободянюк, Иван Отелепко, Людмила Лозова, Георгий Дигам, Вячеслав Карпов, Николай Яценко и др.
Описание: Вашему вниманию представляется едва ли не первый за времена независимости Украины полнометражный художественный фильм для детей, снятый по мотивам рассказа Александра Жовны "Маленькая жизнь". В нём рассказывается о судьбе маленького мальчика-сироты, который пожертвовал своей жизнью ради здоровья чужой больной девочки. На фоне практически полного упадка морали "Маленькая жизнь" - это попытка показать доброту, самопожертвование и любовь, которые всё ещё продолжают питать нашу духовность.
Сэмпл: http://multi-up.com/1093169
Качество видео: DVDRip
Формат видео: AVI
Видео: 704x512 (1.38:1), 25 fps, XviD MPEG-4 ~1975 kbps avg, 0.22 bit/pixel
Аудио 1: 48 kHz, MPEG Layer 3, 2 ch, ~128.00 kbps avg(Русский)
Аудио 2: 48 kHz, MPEG Layer 3, 2 ch, ~128.00 kbps avg(Украинский)
Формат субтитров: softsub (SRT)
Доп. информация о субтитрах: Русские внешние (kingsun)

MediaInfo

Общее
Полное имя : F:\С моей озвучкой\Маленькая жизнь\Маленькая жизнь.avi
Формат : AVI
Формат/Информация : Audio Video Interleave
Размер файла : 925 Мбайт
Продолжительность : 57 м.
Общий поток : 2247 Кбит/сек
Программа кодирования : VirtualDubModRus 1.5.10.2 (build 2542/release)
Библиотека кодирования : VirtualDubMod build 2542/release
Видео
Идентификатор : 0
Формат : MPEG-4 Visual
Профиль формата : Advanced Simple@L5
Параметр BVOP формата : 2
Параметр QPel формата : Да
Параметр GMC формата : Без точки перехода
Параметр матрицы формата : Default (MPEG)
Режим смешивания : Сжатый битовый поток
Идентификатор кодека : XVID
Идентификатор кодека/Подсказка : XviD
Продолжительность : 57 м.
Битрейт : 1976 Кбит/сек
Ширина : 704 пикселя
Высота : 512 пикселей
Соотношение сторон : 1,375
Частота кадров : 25,000 кадров/сек
Цветовое пространство : YUV
Субдискретизация насыщенности : 4:2:0
Битовая глубина : 8 бит
Тип развёртки : Прогрессивная
Метод сжатия : С потерями
Бит/(Пиксели*Кадры) : 0.219
Размер потока : 814 Мбайт (88%)
Библиотека кодирования : XviD 64
Аудио #1
Идентификатор : 1
Формат : MPEG Audio
Версия формата : Version 1
Профиль формата : Layer 3
Режим : Joint stereo
Расширение режима : MS Stereo
Идентификатор кодека : 55
Идентификатор кодека/Подсказка : MP3
Продолжительность : 57 м.
Вид битрейта : Постоянный
Битрейт : 128 Кбит/сек
Каналы : 2 канала
Частота : 48,0 КГц
Метод сжатия : С потерями
Размер потока : 52,7 Мбайт (6%)
Выравнивание : Соединение по промежуткам
Продолжительность промежутка : 40 мс. (1,00 видеокадр)
Время предзагрузки промежутка : 504 мс.
Библиотека кодирования : LAME3.96
Аудио #2
Идентификатор : 2
Формат : MPEG Audio
Версия формата : Version 1
Профиль формата : Layer 3
Режим : Joint stereo
Расширение режима : MS Stereo
Идентификатор кодека : 55
Идентификатор кодека/Подсказка : MP3
Продолжительность : 57 м.
Вид битрейта : Постоянный
Битрейт : 128 Кбит/сек
Каналы : 2 канала
Частота : 48,0 КГц
Метод сжатия : С потерями
Размер потока : 52,7 Мбайт (6%)
Выравнивание : Соединение по промежуткам
Продолжительность промежутка : 40 мс. (1,00 видеокадр)
Время предзагрузки промежутка : 504 мс.
Библиотека кодирования : LAME3.98

Скриншоты



[Профиль] [ЛС]

Создавать темы 12-Июн-2016 08:50 (спустя 2 месяца 26 дней)

Топик был перенесен из форума Фильмы 2011 года в форум Фильмы 2006-2008 года
Russian Mafia
 
Кто просматривает тему:

Форум Тема Автор Размер
Viasat Nature Viasat Nature: Новая дикая природа. Могучие силы природы на маленьком островке земли / De nieuwe wildernis. Grote natuur in een klein land [эпизоды 1-3 из 3] (Ruben Smit, Марк Веркер) [20... skorpionN 2.07 GB
Фильмы (DVD 5/9) Александр маленький (Владимир Фокин) [1981, СССР, военная драма, DVD5] TorrentFilm 4.28 GB
Фантастика и фэнтези Баштовая Ксения, Иванова Виктория – Тёмный принц 02. Маленьких все обидеть норовят! (2015) MP3 Swager 876 MB
Отечественные мультфильмы Большая Козява и Маленькая Козявка (Дмитрий Шестопалов) [2014, мультфильм, DVDScreener] TorrentFilm 61 MB
Отечественные мультфильмы Большой и Маленький (Музраб Баймухамедов) [1981, Кукольный мультфильм, VHSRip] TorrentFilm 154 MB
Зарубежные Вики, маленький викинг 2 в 3Д / Wickie auf großer Fahrt / Wickie and the Treasure of the Gods 3D (Кристиан Диттер / Christian Ditter) [2011, Приключения, комедия, боевик, BDremux, 1080p] BD3D TorrentFilm 22.38 GB
Зарубежные Вики, маленький викинг 2 в 3Д / Wickie auf großer Fahrt / Wickie and the Treasure of the Gods 3D (Кристиан Диттер / Christian Ditter) [2011, Приключения, Комедия, Боевик, Семейный, BDrip-AVC]... TorrentFilm 10.88 GB
Зарубежные мультсериалы Гравити Фолз. Маленькие истории / Gravity Falls. Shorts [01-17 из 17] (2013-2014) WEBRip 1080p | D BOSS 827 MB
Показать сообщения:    

Текущее время: Сегодня 10:00

Часовой пояс: GMT



Вы не можете начинать темы
Вы не можете отвечать на сообщения
Вы не можете редактировать свои сообщения
Вы не можете удалять свои сообщения
Вы не можете голосовать в опросах
Вы не можете прикреплять файлы к сообщениям
Вы не можете скачивать файлы