Макс / Max (Боаз Якин / Boaz Yakin) [2015, США, приключения, семейный, BDRip-AVC] MVO + Sub (Rus, Eng)

 
Автор Сообщение

TorrentFilm ®

Пол:

Стаж: 2 года

Сообщений: 7741



Награды: Нет

Торрент-статистика

Создавать темы 07-Ноя-2015 00:10

[Цитировать]

Макс
Max
«Best Friend. Hero. Marine»


Страна: США
Жанр: приключения, семейный
Год выпуска: 2015
Продолжительность: 01:50:58
Перевод: Профессиональный (многоголосый, закадровый) [Лицензия BD CEE]
Субтитры: русские (форсированные, полные), английские (полные)
Оригинальная аудиодорожка: нет
Режиссер: Боаз Якин / Boaz Yakin
В ролях: Томас Хейден Чёрч, Джош Уиггинс, Люк Клеинтенк, Лорен Грэм, Робби Амелл, Mia Xitlali, Dejon LaQuake, Джей Эрнандес, Оуэн Харн, Джозеф Джулиан Сория, Raymond W. Beal, Эдгар Арреола
Описание:
История о собаке, которая помогала солдатам в Афганистане. После трагического происшествия собаку забирает к себе домой семья ответственного за нее солдата.

Релиз:
Автор рипа: Stalker oK
Сэмпл
Качество видео: BDRip-AVC [Blu-ray 1080p HDCLUB]
Формат видео: MKV
Видео кодек: AVC
Аудио кодек: AC3
Видео: 1501 Кбит/сек, 936x390 (2.40:1), 23,976 кадр/сек, AVC
Аудио: русский, 384 Кбит/сек, 48 КГц, 16 бит, 5.1, AC3
Навигация по главам: есть

MediaInfo

General
Unique ID : 232263640816385385986968550905696395850 (0xAEBC599F1C06107F8F596D59EFB2A24A)
Complete name : N:\Rips\Max\Max.2015.BDRip-AVC.MVO.1.45Gb...stalkerok.new-team.mkv
Format : Matroska
File size : 1.46 GiB
Duration : 1h 50mn
Overall bit rate : 1 884 Kbps
Movie name : Max (2015) (New-Team) (Rip by Stalker oK)
Encoded date : UTC 2015-10-28 14:10:44
Writing application : mkvmerge v7.9.0 ('Birds') 64bit
Writing library : libebml v1.3.1 + libmatroska v1.4.2
Video
ID : 1
Format : AVC
Format/Info : Advanced Video Codec
Format profile : High@L4.1
Format settings, CABAC : Yes
Format settings, ReFrames : 12 frames
Codec ID : V_MPEG4/ISO/AVC
Duration : 1h 50mn
Bit rate : 1 501 Kbps
Width : 936 pixels
Height : 390 pixels
Display aspect ratio : 2.40:1
Frame rate : 23.976 fps
Color space : YUV
Chroma subsampling : 4:2:0
Bit depth : 8 bits
Scan type : Progressive
Bits/(Pixel*Frame) : 0.171
Stream size : 1.13 GiB (78%)
Title : Max (2015) (New-Team) (Rip by Stalker oK)
Writing library : x264 core 146 r2538kMod 121396c
Encoding settings : cabac=1 / ref=12 / deblock=1:-3:-3 / analyse=0x3:0x133 / me=umh / subme=11 / psy=1 / fade_compensate=0.00 / psy_rd=1.00:0.10 / mixed_ref=1 / me_range=48 / chroma_me=1 / trellis=2 / 8x8dct=1 / cqm=0 / deadzone=21,11 / fast_pskip=0 / chroma_qp_offset=-3 / threads=12 / lookahead_threads=3 / sliced_threads=0 / nr=0 / decimate=0 / interlaced=0 / bluray_compat=0 / constrained_intra=0 / fgo=0 / bframes=14 / b_pyramid=2 / b_adapt=2 / b_bias=0 / direct=3 / weightb=1 / open_gop=0 / weightp=2 / keyint=240 / keyint_min=23 / scenecut=40 / intra_refresh=0 / rc_lookahead=60 / rc=2pass / mbtree=0 / bitrate=1501 / ratetol=1.0 / qcomp=0.70 / qpmin=0 / qpmax=69 / qpstep=4 / cplxblur=20.0 / qblur=0.5 / vbv_maxrate=50000 / vbv_bufsize=62500 / nal_hrd=none / filler=0 / ip_ratio=1.40 / pb_ratio=1.30 / aq=3:0.90
Audio
ID : 2
Format : AC-3
Format/Info : Audio Coding 3
Mode extension : CM (complete main)
Codec ID : A_AC3
Duration : 1h 50mn
Bit rate mode : Constant
Bit rate : 384 Kbps
Channel(s) : 6 channels
Channel positions : Front: L C R, Side: L R, LFE
Sampling rate : 48.0 KHz
Bit depth : 16 bits
Compression mode : Lossy
Stream size : 305 MiB (20%)
Language : Russian
Text #1
ID : 3
Format : UTF-8
Codec ID : S_TEXT/UTF8
Codec ID/Info : UTF-8 Plain Text
Title : forced
Language : Russian
Text #2
ID : 4
Format : UTF-8
Codec ID : S_TEXT/UTF8
Codec ID/Info : UTF-8 Plain Text
Language : Russian
Text #3
ID : 5
Format : UTF-8
Codec ID : S_TEXT/UTF8
Codec ID/Info : UTF-8 Plain Text
Language : English
Menu
00:00:00.000 : en:Chapter 1
00:09:15.763 : en:Chapter 2
00:20:30.437 : en:Chapter 3
00:31:01.860 : en:Chapter 4
00:40:28.384 : en:Chapter 5
00:50:32.738 : en:Chapter 6
00:59:04.541 : en:Chapter 7
01:09:11.856 : en:Chapter 8
01:20:37.082 : en:Chapter 9
01:30:08.736 : en:Chapter 10
01:40:27.271 : en:Chapter 11
01:44:01.735 : en:Chapter 12

Скриншоты

[Профиль] [ЛС]
Показать сообщения:    

Текущее время: Сегодня 18:27

Часовой пояс: GMT



Вы не можете начинать темы
Вы не можете отвечать на сообщения
Вы не можете редактировать свои сообщения
Вы не можете удалять свои сообщения
Вы не можете голосовать в опросах
Вы не можете прикреплять файлы к сообщениям
Вы не можете скачивать файлы