Макс / Max (Боаз Якин / Boaz Yakin) [2015, США, приключения, семейный, HDRip-AVC] DVO ([Lucky Strike]) + Original Eng

 
Автор Сообщение

TorrentFilm ®

Пол:

Стаж: 2 года

Сообщений: 7741



Награды: Нет

Торрент-статистика

Создавать темы 31-Июл-2015 00:07

[Цитировать]

Макс / Max
Страна: США
Жанр: приключения, семейный
Год выпуска: 2015
Продолжительность: 01:50:54
Перевод: Любительский (двухголосый закадровый) [Lucky Strike]
Cубтитры: вшитые не отключаемые корейские
Оригинальная аудиодорожка: английский
Режиссер: Боаз Якин / Boaz Yakin
В ролях: Томас Хейден Чёрч, Джош Уиггинс, Люк Клеинтенк, Лорен Грэм, Робби Амелл, Джей Эрнандес Оуэн, Харн Джозеф, Джулиан Сория
Описание: История о собаке, которая помогала солдатам в Афганистане. После трагического происшествия собаку забирает к себе домой семья ответственного за нее солдата.
Сэмпл: http://sendfile.su/1140073

Качество видео: HDRip-AVC 720p
Формат видео: MKV
Видео: MPEG-4 AVC, 3500 Кбит/с, 1280x536, 23,976 кадра/сек
Аудио: Русский (АС3, 2 ch, 256 Кбит/с, 48,0 КГц)
Аудио 2: английский (AC3, 6 ch, 384 Кбит/с, 48,0 КГц)

MediaInfo

Общее
Уникальный идентификатор : 220966365586025732417179170174150951187 (0xA63C92F2DF9904F5A7FC05D83D00C113)
Полное имя : D:\kino\Max.2015.L2.WEBRip.720p.ELEKTRI4KA.mkv
Формат : Matroska
Версия формата : Version 4 / Version 2
Размер файла : 3,21 Гбайт
Продолжительность : 1 ч. 50 м.
Общий поток : 4142 Кбит/сек
Название фильма : Max.2015.L2.WEBRip.720p.ELEKTRI4KA.uniongang.tv [Carl Gaus]
Дата кодирования : UTC 2015-07-24 17:18:37
Программа кодирования : mkvmerge v6.9.1 ('Blue Panther') 64bit built on Apr 18 2014 18:23:38
Библиотека кодирования : libebml v1.3.0 + libmatroska v1.4.1
Видео
Идентификатор : 1
Формат : AVC
Формат/Информация : Advanced Video Codec
Профиль формата : High@L4.1
Параметр CABAC формата : Да
Параметр ReFrames формата : 4 кадра
Идентификатор кодека : V_MPEG4/ISO/AVC
Продолжительность : 1 ч. 50 м.
Битрейт : 3500 Кбит/сек
Ширина : 1280 пикселей
Высота : 536 пикселей
Соотношение сторон : 2,40:1
Режим частоты кадров : Постоянный
Частота кадров : 23,976 кадра/сек
Цветовое пространство : YUV
Субдискретизация насыщенности : 4:2:0
Битовая глубина : 8 бит
Тип развёртки : Прогрессивная
Бит/(Пиксели*Кадры) : 0.213
Размер потока : 2,65 Гбайт (83%)
Заголовок : Max.2015.L2.WEBRip.720p.ELEKTRI4KA[Carl Gaus]
Библиотека кодирования : x264 core 125 r2200 999b753
Настройки программы : cabac=1 / ref=1 / deblock=1:0:0 / analyse=0x3:0x113 / me=hex / subme=2 / psy=1 / psy_rd=1.00:0.00 / mixed_ref=0 / me_range=16 / chroma_me=1 / trellis=0 / 8x8dct=1 / cqm=0 / deadzone=21,11 / fast_pskip=1 / chroma_qp_offset=0 / threads=12 / lookahead_threads=2 / sliced_threads=0 / nr=0 / decimate=1 / interlaced=0 / bluray_compat=0 / constrained_intra=0 / bframes=3 / b_pyramid=2 / b_adapt=1 / b_bias=0 / direct=3 / weightb=1 / open_gop=0 / weightp=1 / keyint=250 / keyint_min=23 / scenecut=40 / intra_refresh=0 / rc_lookahead=10 / rc=2pass / mbtree=1 / bitrate=3500 / ratetol=1.0 / qcomp=0.60 / qpmin=0 / qpmax=69 / qpstep=4 / cplxblur=20.0 / qblur=0.5 / ip_ratio=1.40 / aq=1:1.00
Язык : English
Default : Да
Forced : Нет
Аудио #1
Идентификатор : 2
Формат : AC-3
Формат/Информация : Audio Coding 3
Расширение режима : CM (complete main)
Параметр Endianness формата : Big
Идентификатор кодека : A_AC3
Продолжительность : 1 ч. 50 м.
Вид битрейта : Постоянный
Битрейт : 256 Кбит/сек
Каналы : 2 канала
Расположение каналов : Front: L R
Частота : 48,0 КГц
Битовая глубина : 16 бит
Метод сжатия : С потерями
Размер потока : 203 Мбайт (6%)
Заголовок : Lucky Strike - Max.2015.L2.WEBRip.720p.ELEKTRI4KA [Carl Gaus]
Язык : Russian
Default : Да
Forced : Нет
Аудио #2
Идентификатор : 3
Формат : AC-3
Формат/Информация : Audio Coding 3
Расширение режима : CM (complete main)
Параметр Endianness формата : Big
Идентификатор кодека : A_AC3
Продолжительность : 1 ч. 50 м.
Вид битрейта : Постоянный
Битрейт : 384 Кбит/сек
Каналы : 6 каналов
Расположение каналов : Front: L C R, Side: L R, LFE
Частота : 48,0 КГц
Битовая глубина : 16 бит
Метод сжатия : С потерями
Размер потока : 305 Мбайт (9%)
Заголовок : Original - Max.2015.L2.WEBRip.720p.ELEKTRI4KA [Carl Gaus]
Язык : English
Default : Нет
Forced : Нет

Скриншот c названием фильма

Скриншоты



[Профиль] [ЛС]
Показать сообщения:    

Текущее время: Сегодня 10:16

Часовой пояс: GMT



Вы не можете начинать темы
Вы не можете отвечать на сообщения
Вы не можете редактировать свои сообщения
Вы не можете удалять свои сообщения
Вы не можете голосовать в опросах
Вы не можете прикреплять файлы к сообщениям
Вы не можете скачивать файлы