Макс – разрушитель: Кольцо огня / Max Havoc: Ring of Fire (Терри Ингрэм / Terry Ingram) [2006, США, боевик, SATRip] MVO

 
Автор Сообщение

TorrentFilm ®

Пол:

Стаж: 2 года

Сообщений: 7741



Награды: Нет

Торрент-статистика

Создавать темы 26-Май-2015 00:04

[Цитировать]

Макс – разрушитель: Кольцо огня / Max Havoc: Ring of Fire
Страна: США
Жанр: боевик
Год выпуска: 2006
Продолжительность: 01:25:39
Перевод: Профессиональный (многоголосый закадровый)
Cубтитры: нет
Режиссер: Терри Ингрэм / Terry Ingram
В ролях: Микки Хардт, Кристина Кокс, Дин Кейн, Рей Дон Чонг, Сэмюэл Патрик Чу, Мартин Коув
Описание: Макс Хейвок выясняет, каким образом малыш, укравший его чемодан, после смерти своих родителей оказался в уличной банде.
Доп. информация: За предоставленный рип благодарим Ledy_X
"Спасибы" просьба ПИСАТЬ в теме, тем самым вы продлеваете жизнь раздаче.
Релиз
Сэмпл: https://yadi.sk/i/XRkZrhN1gmmXA
Качество видео: SATRip
Формат видео: AVI
Видео: 720x384 (1.88:1), 25 fps, XviD build 50 ~2075 kbps avg, 0.30 bit/pixel
Аудио: 48 kHz, AC3 Dolby Digital, 2/0 (L,R) ch, ~192 kbps

MediaInfo

Макс разрушитель - Кольцо огня - Ring of Fire [Rip by Ledy_X].avi
Format : AVI
Format/Info : Audio Video Interleave
File size : 1.36 GiB
Duration : 1h 25mn
Overall bit rate : 2 277 Kbps
Movie name : Макс разрушитель - Кольцо огня - Ring of Fire [Rip by Ledy_X]
Director : Rip by Ledy_X
Writing application : VirtualDubMod 1.5.10.3 | www.virtualdub-fr.org || (build 2550/release)
Copyright : Edich2
Comment : RuTracker.org
Video
ID : 0
Format : MPEG-4 Visual
Format profile : Advanced Simple@L5
Format settings, BVOP : 2
Format settings, QPel : No
Format settings, GMC : No warppoints
Format settings, Matrix : Default (MPEG)
Codec ID : XVID
Codec ID/Hint : XviD
Duration : 1h 25mn
Bit rate : 2 076 Kbps
Width : 720 pixels
Height : 384 pixels
Display aspect ratio : 1.85:1
Frame rate : 25.000 fps
Color space : YUV
Chroma subsampling : 4:2:0
Bit depth : 8 bits
Scan type : Progressive
Compression mode : Lossy
Bits/(Pixel*Frame) : 0.300
Stream size : 1.24 GiB (91%)
Writing library : XviD 1.2.1 (UTC 2008-12-04)
Audio
ID : 1
Format : AC-3
Format/Info : Audio Coding 3
Mode extension : CM (complete main)
Format settings, Endianness : Big
Codec ID : 2000
Duration : 1h 25mn
Bit rate mode : Constant
Bit rate : 192 Kbps
Channel(s) : 2 channels
Channel positions : Front: L R
Sampling rate : 48.0 KHz
Bit depth : 16 bits
Compression mode : Lossy
Stream size : 118 MiB (8%)
Alignment : Split accross interleaves
Interleave, duration : 40 ms (1.00 video frame)
Interleave, preload duration : 500 ms

Скриншоты


[Профиль] [ЛС]

Создавать темы 06-Авг-2015 22:31 (спустя 2 месяца 11 дней)

Топик был перенесен из форума Фильмы до 2014 года в форум Фильмы до 2012 года
sergej644
 
Кто просматривает тему:

Показать сообщения:    

Текущее время: Сегодня 22:11

Часовой пояс: GMT



Вы не можете начинать темы
Вы не можете отвечать на сообщения
Вы не можете редактировать свои сообщения
Вы не можете удалять свои сообщения
Вы не можете голосовать в опросах
Вы не можете прикреплять файлы к сообщениям
Вы не можете скачивать файлы