Макс Пэйн / Max Payne (Джон Мур / John Moore) [2008, США, Боевик, триллер, драма, криминал, детектив, BDRip] [Расширенная версия / Unrated Cut] Dub

 
Автор Сообщение

painkiller ®

Стаж: 2 года 3 месяца

Сообщений: 582



Награды: Нет

Торрент-статистика

Создавать темы 15-Авг-2014 10:17

[Цитировать]

Макс Пэйн / Max Payne- Год выпуска: 2008
Выпущено: Канада, США / Abandon Entertainment
Жанр: боевик, триллер, драма, криминал, детектив
Продолжительность: 01:42:58
Перевод: Профессиональный (полное дублирование) BD CEE _Полный дубляж_
Cубтитры: нет-Режиссер:
Джон Мур / John Moore-В ролях:
Марк Уолберг (Max Payne), Мила Кунис (Mona Sax), Бо Бриджес (BB Hensley), Лудакрис (Jim Bravura), Крис О’Доннелл (Jason Colvin), Донал Лог (Alex Balder), Амори Ноласко (Jack Lupino), Кейт Бёртон (Nicole Horne), Ольга Куриленко (Natasha), Ротафорд Грэй (Joe Salle)-Описание:
Сотруднику Управления по борьбе с наркотиками не на что жаловаться. У него есть все: отличная работа, любящая жена и маленький ребенок. Словом, не жизнь, а американская мечта, которая однажды оборачивается самым страшным кошмаром: какой-то психопат убивает его семью.
Отныне у Макса только одна цель — отомстить. Но месть осложняется тем, что его несправедливо обвиняют в убийстве, и все, кому не лень, начинают на него охоту — Полицейское управление Нью-Йорка, уголовный мир и городские власти. Теперь ему уже действительно нечего терять и нечего опасаться. При такой отчаянной решимости только Макс Пэйн способен пролить свет на все тайны, связанные с уничтожением его семьи, и главное, получить удовлетворение от мести, которой он так жаждет.-IMDB | КиноПоиск |-Качество: BDRip [MAX_PAYNE_2008_UNRATED_BDREMUX_HDCLUB]
Формат: AVI
Видео: 720x304 (2.37:1), 23.976 fps, XviD build 73 ~1569 kbps avg, 0.30 bit/pixel
Аудио: 48 kHz, AC3 Dolby Digital, 3/2 (L,C,R,l,r) + LFE ch, ~448.00 kbps avg
-

Скриншоты

MediaInfo

General
Complete name                            : D:\Max_Payne_2008_BDRip_by_Dalemake.avi
Format                                   : AVI
Format/Info                              : Audio Video Interleave
File size                                : 1.46 GiB
Duration                                 : 1h 42mn
Overall bit rate                         : 2 027 Kbps
Writing application                      : VirtualDubMod 1.5.10.3 | www.virtualdub-fr.org || (build 2550/release)
Writing library                          : VirtualDubMod build 2550/release
Video
ID                                       : 0
Format                                   : MPEG-4 Visual
Format profile                           : Advanced Simple@L5
Format settings, BVOP                    : 1
Format settings, QPel                    : No
Format settings, GMC                     : No warppoints
Format settings, Matrix                  : Custom
Codec ID                                 : XVID
Codec ID/Hint                            : XviD
Duration                                 : 1h 42mn
Bit rate                                 : 1 569 Kbps
Width                                    : 720 pixels
Height                                   : 304 pixels
Display aspect ratio                     : 2.35:1
Frame rate                               : 23.976 fps
Color space                              : YUV
Chroma subsampling                       : 4:2:0
Bit depth                                : 8 bits
Scan type                                : Progressive
Compression mode                         : Lossy
Bits/(Pixel*Frame)                       : 0.299
Stream size                              : 1.13 GiB (77%)
Writing library                          : XviD 73
Audio
ID                                       : 1
Format                                   : AC-3
Format/Info                              : Audio Coding 3
Mode extension                           : CM (complete main)
Format settings, Endianness              : Big
Codec ID                                 : 2000
Duration                                 : 1h 42mn
Bit rate mode                            : Constant
Bit rate                                 : 448 Kbps
Channel(s)                               : 6 channels
Channel positions                        : Front: L C R, Side: L R, LFE
Sampling rate                            : 48.0 KHz
Bit depth                                : 16 bits
Compression mode                         : Lossy
Stream size                              : 330 MiB (22%)
Alignment                                : Split accross interleaves
Interleave, duration                     : 42 ms (1.00 video frame)
Interleave, preload duration             : 500 ms
-
[Профиль] [ЛС]

Создавать темы 06-Авг-2015 23:10 (спустя 11 месяцев 22 дня)

Топик был перенесен из форума Фильмы до 2014 года в форум Фильмы до 2012 года
sergej644
 

Создавать темы 12-Июн-2016 08:51 (спустя 1 год 9 месяцев)

Топик был перенесен из форума Фильмы 2011 года в форум Фильмы 2006-2008 года
Russian Mafia
 
Кто просматривает тему:

Показать сообщения:    

Текущее время: Сегодня 18:28

Часовой пояс: GMT



Вы не можете начинать темы
Вы не можете отвечать на сообщения
Вы не можете редактировать свои сообщения
Вы не можете удалять свои сообщения
Вы не можете голосовать в опросах
Вы не можете прикреплять файлы к сообщениям
Вы не можете скачивать файлы