Макс Мински и я / Max Minsky und ich (Анна Джастис / Anna Justice) [2007, Германия, мелодрама, семейный, TVRip] DVO (Автор-Студия)

 
Автор Сообщение

painkiller ®

Стаж: 2 года 3 месяца

Сообщений: 582



Награды: Нет

Торрент-статистика

Создавать темы 14-Авг-2014 13:02

[Цитировать]

Макс Мински и я / Max Minsky und ich
Страна: Германия
Жанр: мелодрама, семейный
Год выпуска: 2007
Продолжительность: 01:35:30
Перевод: Профессиональный (двухголосый закадровый) Автор-Студия
Cубтитры: нет
Оригинальная аудиодорожка: нет
Режиссер: Анна Джастис / Anna Justice
В ролях: Зои Мур, Эмиль Рейнке, Адриана Альтарас, Ян Йозеф Лиферс, Моника Бляйбтрой, Сузанна Саймон, Розмари Фендел, Хильдегард Алекс, Ральф Мисске
Описание: Экранизация бестселлера, лауреата ряда литературных наград «Принц Уильям, Максимилиан Мински и я» родившейся в Америке немецкой писательницы Холли-Джейн Раленс.
13-летняя берлинская школьница Нелли Сью отличница по всем предметам, но абсолютно беспомощна в спорте. Когда она влюбляется в принца Эдуарда Люксембургского, который по совпадению является организатором одного международных юношеских турниров по баскетболу, она готова на всё, чтобы попасть в школьную баскетбольную команду и таким образом встретиться с предметом своего обожания.
Ради этого Нелли заключает сделку с живущим по соседству сверстником Максом Мински, который не знает себе равных в баскетболе и обещает её тренировать, если та поможет ему по остальным предметам в школе. Поначалу Макс страшно раздражает всю округу и в первую очередь саму Нелли, но постепенно он занимает всё больше и больше места в её жизни, а увлечение далёким принцем отходит на задний план.
Качество видео: TVRip
Формат видео: AVI
Видео: MPEG4, XviD, 688x320 (2.2), 25.000 fps, 1 839 Kbps (0.334 bit/pixel)
Аудио: AC-3, 48.0 KHz, 2 ch, 192 Kbps, CBR

MediaInfo

Общее
Полное имя : K:\Макс Мински и я.avi
Формат : AVI
Формат/Информация : Audio Video Interleave
Размер файла : 1,36 Гбайт
Продолжительность : 1 ч. 35 м.
Общий поток : 2041 Кбит/сек
Название фильма : Макс Мински и я / Max Minsky und ich (2007)
Режиссёр : miha2154
Программа кодирования : VirtualDubMod 1.5.10.2 (build 2540/release)
Библиотека кодирования : VirtualDubMod build 2540/release
Правообладатель : специально для BitTorrent трекер RuTracker.org (ex torrents.ru)
Видео
Идентификатор : 0
Формат : MPEG-4 Visual
Профиль формата : Advanced Simple@L5
Параметр BVOP формата : 2
Параметр QPel формата : Нет
Параметр GMC формата : Без точки перехода
Параметр матрицы формата : Default (MPEG)
Идентификатор кодека : XVID
Идентификатор кодека/Подсказка : XviD
Продолжительность : 1 ч. 35 м.
Битрейт : 1839 Кбит/сек
Ширина : 688 пикселей
Высота : 320 пикселей
Соотношение сторон : 2,2:1
Частота кадров : 25,000 кадров/сек
Цветовое пространство : YUV
Субдискретизация насыщенности : 4:2:0
Битовая глубина : 8 бит
Тип развёртки : Прогрессивная
Метод сжатия : С потерями
Бит/(Пиксели*Кадры) : 0.334
Размер потока : 1,23 Гбайт (90%)
Библиотека кодирования : XviD 1.1.0 (UTC 2005-11-22)
Аудио
Идентификатор : 1
Формат : AC-3
Формат/Информация : Audio Coding 3
Расширение режима : CM (complete main)
Параметр Endianness формата : Big
Идентификатор кодека : 2000
Продолжительность : 1 ч. 35 м.
Вид битрейта : Постоянный
Битрейт : 192 Кбит/сек
Каналы : 2 канала
Расположение каналов : Front: L R
Частота : 48,0 КГц
Битовая глубина : 16 бит
Метод сжатия : С потерями
Размер потока : 131 Мбайт (9%)
Выравнивание : Разделение по промежуткам
Продолжительность промежутка : 40 мс. (1,00 видеокадр)
Время предзагрузки промежутка : 500 мс.
Заголовок : Профессиональный (двухголосый закадровый) "Автор-Студия"

Скриншоты


[Профиль] [ЛС]

Создавать темы 06-Авг-2015 23:13 (спустя 11 месяцев 23 дня)

Топик был перенесен из форума Фильмы до 2014 года в форум Фильмы до 2012 года
sergej644
 
Кто просматривает тему:

Показать сообщения:    

Текущее время: Сегодня 10:57

Часовой пояс: GMT



Вы не можете начинать темы
Вы не можете отвечать на сообщения
Вы не можете редактировать свои сообщения
Вы не можете удалять свои сообщения
Вы не можете голосовать в опросах
Вы не можете прикреплять файлы к сообщениям
Вы не можете скачивать файлы