(Rock,Pop) Максим Леонидов - Grand Collection - 2000, FLAC (image+.cue), lossless

 
Автор Сообщение

sergej644 ®

Пол:

Стаж: 4 года 11 месяцев

Сообщений: 6046

Откуда: Soviet Union



Награды: Нет

Торрент-статистика

Создавать темы 05-Авг-2014 18:14

[Цитировать]

Максим Леонидов / Grand Collection
Жанр: Rock,Pop
Страна-производитель диска: Россия
Год издания: 2000
Издатель (лейбл): Квадро-Диск
Номер по каталогу: GCR 015
Аудиокодек: FLAC (*.flac)
Тип рипа: image+.cue
Битрейт аудио: lossless
Продолжительность: 01:04:40
Наличие сканов в содержимом раздачи: да-

Треклист

1. Привет
2. Домой!
3. Алиса
4. Именины у Кристины
5. Арина-балерина
6. Ленинградское время
7. Не дай ему уйти
8. Проплывая над городом
9. Конь
10. Волки
11. Не грусти
12. Две гантели и один утюг
13. Видение
14. Собутыльники
15. Налей мне двойной
16. От Питера до Москвы
17. Вместе невозможно и врозь никак

Лог создания рипа

Exact Audio Copy V1.0 beta 3 from 29. August 2011
EAC extraction logfile from 5. August 2014, 9:00
Максим Леонидов / Grand Collection
Used drive : TSSTcorpCDDVDW SE-S224Q Adapter: 2 ID: 0
Read mode : SecureUtilize accurate stream : YesDefeat audio cache : YesMake use of C2 pointers : No
Read offset correction : 6Overread into Lead-In and Lead-Out : NoFill up missing offset samples with silence : YesDelete leading and trailing silent blocks : NoNull samples used in CRC calculations : YesUsed interface : Native Win32 interface for Win NT & 2000
Used output format : User Defined EncoderSelected bitrate : 1024 kBit/sQuality : HighAdd ID3 tag : NoCommand line compressor : D:\Program Files\Exact Audio Copy\Flac\flac.exeAdditional command line options : -V -8 -T "Date=%year%" -T "Genre=%genre%" %source%
TOC of the extracted CD
Track | Start | Length | Start sector | End sector --------------------------------------------------------- 1 | 0:00.00 | 2:56.57 | 0 | 13256 2 | 2:56.57 | 4:00.32 | 13257 | 31288 3 | 6:57.14 | 2:43.20 | 31289 | 43533 4 | 9:40.34 | 3:00.14 | 43534 | 57047 5 | 12:40.48 | 4:45.67 | 57048 | 78489 6 | 17:26.40 | 5:51.68 | 78490 | 104882 7 | 23:18.33 | 3:11.70 | 104883 | 119277 8 | 26:30.28 | 3:03.52 | 119278 | 133054 9 | 29:34.05 | 5:12.22 | 133055 | 156476 10 | 34:46.27 | 3:39.49 | 156477 | 172950 11 | 38:26.01 | 4:01.14 | 172951 | 191039 12 | 42:27.15 | 3:56.33 | 191040 | 208772 13 | 46:23.48 | 3:16.58 | 208773 | 223530 14 | 49:40.31 | 3:24.67 | 223531 | 238897 15 | 53:05.23 | 4:49.46 | 238898 | 260618 16 | 57:54.69 | 3:49.40 | 260619 | 277833 17 | 61:44.34 | 3:56.59 | 277834 | 295592
Range status and errors
Selected range
Filename G:\Леонидов Максим\Максим Леонидов - Grand Collection (2000)\Максим Леонидов - Grand Collection.wav
Peak level 98.9 % Extraction speed 2.4 X Range quality 100.0 % Test CRC 6F4A03FD Copy CRC 6F4A03FD Copy OK
No errors occurred
AccurateRip summary
Track 1 accurately ripped (confidence 7) [8E2C3BD3] (AR v1)Track 2 accurately ripped (confidence 6) [36CFC2C3] (AR v1)Track 3 accurately ripped (confidence 7) [5DE11C16] (AR v1)Track 4 accurately ripped (confidence 7) [1DAC248D] (AR v1)Track 5 accurately ripped (confidence 6) [C67ED201] (AR v1)Track 6 accurately ripped (confidence 6) [1F35B3EA] (AR v1)Track 7 accurately ripped (confidence 6) [22723FC7] (AR v1)Track 8 accurately ripped (confidence 7) [20977968] (AR v1)Track 9 accurately ripped (confidence 6) [02FA9147] (AR v1)Track 10 accurately ripped (confidence 6) [37243478] (AR v1)Track 11 accurately ripped (confidence 7) [2522629E] (AR v1)Track 12 accurately ripped (confidence 6) [B49B57C3] (AR v1)Track 13 accurately ripped (confidence 7) [3F2B6F63] (AR v1)Track 14 accurately ripped (confidence 6) [158BABAE] (AR v1)Track 15 accurately ripped (confidence 7) [6C5ADB3E] (AR v1)Track 16 accurately ripped (confidence 7) [19FE248F] (AR v1)Track 17 accurately ripped (confidence 6) [58F04CD6] (AR v1)
All tracks accurately ripped
End of status report
==== Log checksum 47417484774F2B57533095682C3F1D82CF59BCECD284C4E5E6AD5186ACE08C9E ====

Содержание индексной карты (.CUE)

REM GENRE PopRockREM DATE 2000REM DISCID 0C0F6511REM COMMENT "ExactAudioCopy v1.0b3"PERFORMER "Максим Леонидов"TITLE "Grand Collection"FILE "Максим Леонидов - Grand Collection.flac" WAVE TRACK 01 AUDIO TITLE "Привет" PERFORMER "Максим Леонидов" INDEX 01 00:00:00 TRACK 02 AUDIO TITLE "Домой!" PERFORMER "Максим Леонидов" INDEX 00 02:54:57 INDEX 01 02:56:57 TRACK 03 AUDIO TITLE "Алиса" PERFORMER "Максим Леонидов" INDEX 00 06:55:14 INDEX 01 06:57:14 TRACK 04 AUDIO TITLE "Именины у Кристины" PERFORMER "Максим Леонидов" INDEX 00 09:38:34 INDEX 01 09:40:34 TRACK 05 AUDIO TITLE "Арина-балерина" PERFORMER "Максим Леонидов" INDEX 00 12:38:48 INDEX 01 12:40:48 TRACK 06 AUDIO TITLE "Ленинградское время" PERFORMER "Максим Леонидов" INDEX 00 17:24:40 INDEX 01 17:26:40 TRACK 07 AUDIO TITLE "Не дай ему уйти" PERFORMER "Максим Леонидов" INDEX 00 23:16:33 INDEX 01 23:18:33 TRACK 08 AUDIO TITLE "Проплывая над городом" PERFORMER "Максим Леонидов" INDEX 00 26:28:28 INDEX 01 26:30:28 TRACK 09 AUDIO TITLE "Конь" PERFORMER "Максим Леонидов" INDEX 00 29:32:05 INDEX 01 29:34:05 TRACK 10 AUDIO TITLE "Волки" PERFORMER "Максим Леонидов" INDEX 00 34:44:27 INDEX 01 34:46:27 TRACK 11 AUDIO TITLE "Не грусти" PERFORMER "Максим Леонидов" INDEX 00 38:24:01 INDEX 01 38:26:01 TRACK 12 AUDIO TITLE "Две гантели и один утюг" PERFORMER "Максим Леонидов" INDEX 00 42:25:15 INDEX 01 42:27:15 TRACK 13 AUDIO TITLE "Видение" PERFORMER "Максим Леонидов" INDEX 00 46:21:48 INDEX 01 46:23:48 TRACK 14 AUDIO TITLE "Собутыльники" PERFORMER "Максим Леонидов" INDEX 00 49:38:31 INDEX 01 49:40:31 TRACK 15 AUDIO TITLE "Налей мне двойной" PERFORMER "Максим Леонидов" INDEX 00 53:03:23 INDEX 01 53:05:23 TRACK 16 AUDIO TITLE "От Питера до Москвы" PERFORMER "Максим Леонидов" INDEX 00 57:52:69 INDEX 01 57:54:69 TRACK 17 AUDIO TITLE "Вместе невозможно и врозь никак" PERFORMER "Максим Леонидов" INDEX 00 61:42:34 INDEX 01 61:44:34
[Профиль] [ЛС]

Создавать темы 13-Авг-2015 10:05 (спустя 1 год)

Топик был перенесен из форума Отечественная в форум Pop
sergej644
 
Кто просматривает тему:

Показать сообщения:    

Текущее время: Сегодня 13:50

Часовой пояс: GMT



Вы не можете начинать темы
Вы не можете отвечать на сообщения
Вы не можете редактировать свои сообщения
Вы не можете удалять свои сообщения
Вы не можете голосовать в опросах
Вы не можете прикреплять файлы к сообщениям
Вы не можете скачивать файлы